Торрент файл
скачать торрент магнет ссылка Добавлен: 04 май 2014, 23:38
Размер: 1.46 ГБ
Сидеров: 1
Личеров: 3
Статус: (salma3)
Автор

СообщениеДобавлено: 04 май 2014, 23:38 

Не в сети
Супермодератор
Аватара пользователя
Дата регистрации:
15 фев 2012, 16:44
Возраст: 28
Спасибо: 6577 / 2143
Сообщения: 43952
В бегах / Plato's Run

Год выпуска: 1997
Жанр: Боевик
Режиссер: Джеймс Бекет / James Becket

В ролях: Гэри Бьюзи, Рой Шайдер, Стивен Бауэр, Джефф Спикмэн, Тиани Уорден, Мэгги Майатт, Горацио Ле Дон, Даг ДеЛюка, Дебора Магдалена, Мелани Чартофф, Сальвадор Леви, Марк Маколей,

Описание:
Бывший морской пехотинец Плато Смит принимает предложение своей старой подруги Марты освободить и вывезти с Кубы за большие деньги заключенного Феликса Гомеса. Его отец возглавляет кубинскую общину в Майами. Плато и его армейский товарищ Сэм Мэкрис под непрерывным огнем вытаскивают кубинца из тюрьмы. Освобожденный стреляет в кубинского лидера и убивает его. после схватки с Плато, Феликс исчезает и в убийстве Гомеса — старшего обвиняют Смита. Его преследуют полиция Майами, агенты ФБР и кубинские иммигранты. Плато отправляется на поиски Феликса, который работает на международного торговца оружием Алекса Сеноркяна…



Страна: США
Продолжительность: 01:32:29
Перевод: Профессиональный [двухголосый]

Файл
Качество: DVDRip [исх. DVD5]
Формат файла: AVI
Видео кодек: XviD
Аудио кодек: AC3
Video: 640x480 (1.33:1), 25 fps, XviD build 50 ~2064 kbps avg, 0.27 bit/pixel
Audio: 48 kHz, AC3 Dolby Digital, 2/0 (L,R) ch, ~192 kbps

Время Раздачи 11-00 до 16-00 + 20-00 до 03-00


Downloads\Plato_s_Run_1997.DVDRip.avi
Format : AVI
Format/Info : Audio Video Interleave
File size : 1.46 GiB
Duration : 1h 32mn
Overall bit rate : 2 266 Kbps
Writing application : VirtualDubMod 1.5.10.3 | http://www.virtualdub-fr.org || (build 2550/release)
Writing library : VirtualDubMod build 2550/release

Video
ID : 0
Format : MPEG-4 Visual
Format profile : Advanced Simple@L5
Format settings, BVOP : 3
Format settings, QPel : No
Format settings, GMC : No warppoints
Format settings, Matrix : Default (H.263)
Codec ID : XVID
Codec ID/Hint : XviD
Duration : 1h 32mn
Bit rate : 2 064 Kbps
Width : 640 pixels
Height : 480 pixels
Display aspect ratio : 4:3
Frame rate : 25.000 fps
Color space : YUV
Chroma subsampling : 4:2:0
Bit depth : 8 bits
Scan type : Progressive
Compression mode : Lossy
Bits/(Pixel*Frame) : 0.269
Stream size : 1.33 GiB (91%)
Writing library : XviD 1.2.1 (UTC 2008-12-04)

Audio
ID : 1
Format : AC-3
Format/Info : Audio Coding 3
Mode extension : CM (complete main)
Format settings, Endianness : Big
Codec ID : 2000
Duration : 1h 32mn
Bit rate mode : Constant
Bit rate : 192 Kbps
Channel(s) : 2 channels
Channel positions : Front: L R
Sampling rate : 48.0 KHz
Bit depth : 16 bits
Compression mode : Lossy
Stream size : 127 MiB (8%)
Alignment : Split accross interleaves
Interleave, duration : 40 ms (1.00 video frame)
Interleave, preload duration : 500 ms


Релиз от:


_________________
Проголосуй за трекер Открытый торрент трекер - RUS-MEDIA.ORG

Проголосуй Открытый торрент трекер - RUS-MEDIA.ORG



реклама партнёра


Вернуться к началу
 Профиль Отправить личное сообщение  
 
   Похожие торренты   Автор   Торрент   Размер 
В этой теме нет новых непрочитанных сообщений. Красотки в бегах / Hot Pursuit (Энн Флетчер) [боевик, комедия, 2015] HDRip, Dub [лицензия]

Dracon

555 | 5

1.37 ГБ

В этой теме нет новых непрочитанных сообщений. Красотки в бегах / Hot Pursuit (Энн Флетчер) [боевик, комедия, 2015] BDRemux 1080p, Dub+Sub [лицензия]

Dracon

188 | 46

17.82 ГБ

В этой теме нет новых непрочитанных сообщений. Красотки в бегах / Hot Pursuit (Энн Флетчер) [боевик, комедия, 2015] BDRip 720p, Dub+Sub [Лицензия]

slawa4155

1934 | 136

4.71 ГБ

В этой теме нет новых непрочитанных сообщений. Побег / В бегах / The Getaway [боевик, триллер, драма, 1994] HDRip, Mvo [Полная версия]

salma3

245 | 70

1.45 ГБ

В этой теме нет новых непрочитанных сообщений. Красотки в бегах / Hot Pursuit (Энн Флетчер) [боевик, комедия, 2015] BDRip 1080p, Dub+Sub [лицензия]

Dracon

791 | 77

9.49 ГБ

В этой теме нет новых непрочитанных сообщений. Динамит / T.N.T. [Боевик, 1997] DVDRip, Mvo+Avo

salma3

32 | 4

1.46 ГБ

В этой теме нет новых непрочитанных сообщений. Женщина в бегах / Woman on the Run [триллер, 2017] WEB-DL 720p, Mvo

salma3

296 | 85

2.68 ГБ


Начать новую тему Ответить на тему  [ 1 сообщение ] 




Для Мосгорсуда, Роскомнадзора и рекламодателей:: mosgorsud-torrent[собачка]yandex.ru