Торрент файл
скачать торрент магнет ссылка Добавлен: 02 май 2014, 21:36
Размер: 2.87 ГБ
Сидеров: 32
Личеров: 7
Статус: (salma3)
Автор

СообщениеДобавлено: 02 май 2014, 21:36 

Не в сети
Супермодератор
Аватара пользователя
Дата регистрации:
15 фев 2012, 16:44
Возраст: 27
Спасибо: 5139 / 2089
Сообщения: 17411
Год выхода: 2013
Жанр: ужасы, фантастика
Режиссер: Артур Синклер
В ролях: Кит Даффи, Христо Балабанов, Флоренс Бруденель, Оуэн Дэвис, Кристиан Хаммердорфер, Стивен Хартли, Лиза МакАллистер, Владо Мажанаов, Корин Немек, Атанас Сребрев

О фильме:
Сверхсекретный космический корабль при входе в атмосферу терпит крушение. Его обломки падают в водоём с крокодилами. А космос разрабатывал дроидов — для военной программы. Эти боевые дроиды проникают в организм крокодила и дают команду его нервной системе — уничтожить людей!


Страна: США
Студия: Phase 4 films, UFO Internftional Productions
Продолжительность: 01:24:45
Перевод: Профессиональный (многоголосый закадровый)

Файл
Кодек: h.264 (MKV)
Качество: WEB-DL 720p
Видео: AVC, 1280 x 720, ~4113 kbps
Звук: Русский: AC-3, 2 ch, 192 kbps / Английский: AC-3, 6 ch, 448 kbps
Субтитры: нет

Семпл

Общее
Уникальный идентификатор : 168348648403719580577546155723716462494 (0x7EA6C532C2870C1E037BA147C20E879E)
Полное имя : F:Robokrokodil.2013.P.WEB-DL 720p.mkv
Формат : Matroska
Версия формата : Version 2
Размер файла : 2,87 Гбайт
Продолжительность : 1 ч. 24 м.
Режим общего битрейта : Переменный
Общий поток : 4849 Кбит/сек
Программа кодирования : Lavf51.12.1
Библиотека кодирования : Lavf51.12.1

Видео
Идентификатор : 1
Формат : AVC
Формат/Информация : Advanced Video Codec
Профиль формата : Baseline@L3.1
Параметр CABAC формата : Нет
Параметр ReFrames формата : 1 кадр
Параметр GOP формата : M=1, N=12
Идентификатор кодека : V_MPEG4/ISO/AVC
Продолжительность : 1 ч. 24 м.
Вид битрейта : Переменный
Битрейт : 4113 Кбит/сек
Максимальный битрейт : 6300 Кбит/сек
Ширина : 1280 пикселей
Высота : 720 пикселей
Соотношение сторон : 16:9
Режим частоты кадров : Постоянный
Частота кадров : 23,976 кадра/сек
Частота кадров в оригинале : 24,000 кадра/сек
Цветовое пространство : YUV
Субдискретизация насыщенности : 4:2:0
Битовая глубина : 8 бит
Тип развёртки : Прогрессивная
Бит/(Пиксели*Кадры) : 0.186
Размер потока : 2,43 Гбайт (85%)
Default : Да
Forced : Нет

Аудио #1
Идентификатор : 2
Формат : AC-3
Формат/Информация : Audio Coding 3
Расширение режима : CM (complete main)
Параметр Endianness формата : Big
Идентификатор кодека : A_AC3
Продолжительность : 1 ч. 24 м.
Вид битрейта : Постоянный
Битрейт : 192 Кбит/сек
Каналы : 2 канала
Расположение каналов : Front: L R
Частота : 48,0 КГц
Битовая глубина : 16 бит
Метод сжатия : С потерями
Размер потока : 116 Мбайт (4%)
Default : Да
Forced : Нет

Аудио #2
Идентификатор : 3
Формат : AC-3
Формат/Информация : Audio Coding 3
Расширение режима : CM (complete main)
Параметр Endianness формата : Big
Идентификатор кодека : A_AC3
Продолжительность : 1 ч. 24 м.
Вид битрейта : Постоянный
Битрейт : 448 Кбит/сек
Каналы : 6 каналов
Расположение каналов : Front: L C R, Side: L R, LFE
Частота : 48,0 КГц
Битовая глубина : 16 бит
Метод сжатия : С потерями
Размер потока : 272 Мбайт (9%)
Default : Да
Forced : Нет


_________________



реклама партнёра


Вернуться к началу
 Профиль Отправить личное сообщение  
 
   Похожие торренты   Автор   Торрент   Размер 
В этой теме нет новых непрочитанных сообщений. Робо-крокодил / Robocroc [ужасы, фантастика, 2013] WEB-DLRip, Mvo

salma3

119 | 10

1.37 ГБ

В этой теме нет новых непрочитанных сообщений. Крокодил / Crocodile [ужасы, триллер, 2000] DVDRip, Mvo

salma3

3 | 4

1.59 ГБ

В этой теме нет новых непрочитанных сообщений. Крокодил / Rogue [Ужасы, триллер, приключения, 2007] HDRip, Dvo

salma3

252 | 14

1.46 ГБ

В этой теме нет новых непрочитанных сообщений. Робо - горничная / Служанка - робот / Rôjin to rabudôru: Watashi ga shochô ni natta toki... ./ Maid - Droid (Наоюки Томоматсу / Naoyuki Tomomatsu) [2008г., Япония, драма, фантастика, эротика, DVDRip] avo

Alfredovich

72 | 10

982.91 МБ

В этой теме нет новых непрочитанных сообщений. Пугало / Scarecrow [Ужасы, фантастика, 2013] BDRip 720p, avo

Dracon

25 | 4

4.48 ГБ

В этой теме нет новых непрочитанных сообщений. Не навреди / Malignant [ужасы, фантастика, триллер, 2013] WEB-DL 720p, mvo

Dracon

20 | 2

2.09 ГБ

В этой теме нет новых непрочитанных сообщений. Боевые псы / Battledogs [ужасы, фантастика, боевик, 2013] BDRip 720p, Mvo

salma3

55 | 6

5.86 ГБ


Начать новую тему Ответить на тему  [ 1 сообщение ] 




Для Мосгорсуда, Роскомнадзора и рекламодателей:: mosgorsud-torrent[собачка]yandex.ru