Торрент файл
скачать торрент магнет ссылка Добавлен: 01 май 2014, 14:35
Размер: 1.19 ГБ
Сидеров: 88
Личеров: 4
Статус: (salma3)
Автор

СообщениеДобавлено: 01 май 2014, 14:35 

В сети
Супермодератор
Аватара пользователя
Дата регистрации:
15 фев 2012, 16:44
Возраст: 27
Спасибо: 5136 / 2089
Сообщения: 17409
Если хочешь, ищи / Den som söker

Год выхода: 2013
Жанр: Триллер, драма
Режиссер: Йохан Лунд

В ролях: Жозефин Борнебуш, Никлас Фальк, Бьёрн Гранат, Пиа Грин, Сигрид Холмберг, Эрик Йоханссон, Микаела Кнапп, Марика Линдстрём, Клаэс Юнгмарк

Описание: Когда родители Тувы погибают в аварии,она обнаруживает в документах, что она приемная дочь. Поиски настоящих родителей, приводят ее в маленький городок, где люди отчаянно пытаются, что то скрыть от нее...



Страна: Швеция
Продолжительность: 01:36:33
Перевод: Любительский (одноголосый) [Xixidok]

Файл
Качество: DVDRip
Формат файла: AVI
Видео кодек: XviD
Аудио кодек: MP3
Видео: 1567 Кбит/с, 25.000 fps, 688x288
Звук: MP3, 2 ch, 192 Кбит/с



General
Complete name : D:torrentEsli.xo4esh.ishi.2013.DVDRip.avi
Format : AVI
Format/Info : Audio Video Interleave
File size : 1.19 GiB
Duration : 1h 36mn
Overall bit rate : 1 768 Kbps
Writing application : VirtualDubMod 1.5.10.3 (build 2550/release)
Writing library : VirtualDubMod build 2550/release

Video
ID : 0
Format : MPEG-4 Visual
Format profile : Advanced Simple@L5
Format settings, BVOP : Yes
Format settings, QPel : No
Format settings, GMC : No warppoints
Format settings, Matrix : Default (MPEG)
Codec ID : XVID
Codec ID/Hint : XviD
Duration : 1h 36mn
Bit rate : 1 567 Kbps
Width : 688 pixels
Height : 288 pixels
Display aspect ratio : 2.40:1
Frame rate : 25.000 fps
Color space : YUV
Chroma subsampling : 4:2:0
Bit depth : 8 bits
Scan type : Progressive
Compression mode : Lossy
Bits/(Pixel*Frame) : 0.316
Stream size : 1.06 GiB (89%)
Writing library : XviD 1.2.0.dev47 (UTC 2006-11-01)

Audio
ID : 1
Format : MPEG Audio
Format version : Version 1
Format profile : Layer 3
Codec ID : 55
Codec ID/Hint : MP3
Duration : 1h 36mn
Bit rate mode : Constant
Bit rate : 192 Kbps
Channel count : 2 channels
Sampling rate : 44.1 KHz
Compression mode : Lossy
Delay relative to video : 22ms
Stream size : 133 MiB (11%)
Alignment : Split accross interleaves
Interleave, duration : 40 ms (1.00 video frame)
Interleave, preload duration : 500 ms



_________________



реклама партнёра


Вернуться к началу
 Профиль Отправить личное сообщение  
 
   Похожие торренты   Автор   Торрент   Размер 
В этой теме нет новых непрочитанных сообщений. Ты хочешь, чтобы я его убил? / Uwantme2killhim? [Триллер, драма, 2013] WEB-DL 720p, Mvo

Dracon

62 | 9

2.28 ГБ

В этой теме нет новых непрочитанных сообщений. Ты хочешь, чтобы я его убил? / uwantme2killhim? (Эндрю Дуглас) [Триллер, драма, 2013] WEB-DLRip, Mvo

Dracon

1 | 0

1.46 ГБ

В этой теме нет новых непрочитанных сообщений. Ирочка что уже хочешь ебатся ?. (2016) HD 720р

Dievas

60 | 37

66.84 МБ

В этой теме нет новых непрочитанных сообщений. Хочешь в киску [2012 г., amateur, teens, oral, CamRip]

Dievas

3 | 1

171.95 МБ

В этой теме нет новых непрочитанных сообщений. Ты хочешь туда прямо? Нет! [2015 г., Homemade, Russian, CamRip]

Dievas

22 | 1

362.77 МБ

В этой теме нет новых непрочитанных сообщений. Wanna Fuck My Daughter Gotta Fuck Me First / Хочешь Трахнуть Мою Дочку - Трахни Сначала Меня (Tommy Sy, Devil's Films) [2008 г., Gonzo, Big Boobs, Foursome, MILF, Oral, Straight, Teen, Threesome., DVDRip]

friizze

101 | 565

1.31 ГБ

В этой теме нет новых непрочитанных сообщений. Не дотрагиваясь / Bez doteku [Драма, триллер, 2013] DVDRip, avo

Dracon

801 | 59

774.34 МБ


Начать новую тему Ответить на тему  [ 1 сообщение ] 




Для Мосгорсуда, Роскомнадзора и рекламодателей:: mosgorsud-torrent[собачка]yandex.ru