Торрент файл
скачать торрент магнет ссылка Добавлен: 01 май 2014, 10:01
Размер: 1.93 ГБ
Сидеров: 35
Личеров: 2
Статус: (salma3)
Автор

СообщениеДобавлено: 01 май 2014, 10:01 

Не в сети
Зам. Админа
Аватара пользователя
Дата регистрации:
02 дек 2010, 12:39
Спасибо: 12458 / 214
Сообщения: 27968
Год выхода: 2013
Жанр: драма
Режиссер: Ана Гевара, Летисия Хорхе
В ролях: Нельсон Гуццини, Малу Чоуса, Хоакин Кастильони, София Асамбуя, Андрес Сунини, Ромина Рокка, Валентино Муффолини

О фильме:
После развода Альберто вместе с двумя своими детьми отправляется на популярный термальный курорт в Сальто. Однако отпуск проходит совсем не так, как было запланировано: непрекращающийся дождь заставляет их всё время оставаться в номере, где даже телевизора нет. И хотя Альберто всячески старается развлечь маленького Федерико и 14-летнюю Люсию, все его потуги напрасны. Но однажды девушка знакомится с, на первый взгляд, очень милым парнем Сантьяго...


Выпущено: Уругвай, Мексика, Нидерланды, Германия
Продолжительность: 01:42:57
Озвучивание: Профессиональное (многоголосое) [online movies]

Формат: MKV
Качество: WEB-DL 720p
Видео: 3055 kb/s, 1280x720
Аудио: AC3, 192 kb/s (2 ch)
Размер: 1.93 Gb
Скачать: Сэмпл


Общее
So.Much.Water.2013.WED-DL.720p.CINEMANIA.mkv
Формат : Matroska
Версия формата : Version 4 / Version 2
Размер файла : 1,93 Гбайт
Продолжительность : 1 ч. 42 м.
Общий поток : 2689 Кбит/сек
Название фильма : Release Group CINEMANIA
Дата кодирования : UTC 2014-04-30 22:01:54
Программа кодирования : mkvmerge v6.9.1 ('Blue Panther') 64bit built on Apr 18 2014 18:23:38
Библиотека кодирования : libebml v1.3.0 + libmatroska v1.4.1

Видео
Идентификатор : 1
Формат : AVC
Формат/Информация : Advanced Video Codec
Профиль формата : High@L4.0
Параметр CABAC формата : Да
Параметр ReFrames формата : 3 кадра
Идентификатор кодека : V_MPEG4/ISO/AVC
Продолжительность : 1 ч. 42 м.
Битрейт : 3055 Кбит/сек
Ширина : 1280 пикселей
Высота : 720 пикселей
Соотношение сторон : 16:9
Режим частоты кадров : Постоянный
Частота кадров : 25,000 кадров/сек
Цветовое пространство : YUV
Субдискретизация насыщенности : 4:2:0
Битовая глубина : 8 бит
Тип развёртки : Прогрессивная
Бит/(Пиксели*Кадры) : 0.109
Размер потока : 1,76 Гбайт (91%)
Заголовок : Release Group CINEMANIA
Библиотека кодирования : x264 core 133
Настройки программы : cabac=1 / ref=4 / deblock=1:0:0 / analyse=0x3:0x133 / me=umh / subme=9 / psy=1 / psy_rd=1.00:0.00 / mixed_ref=1 / me_range=24 / chroma_me=1 / trellis=2 / 8x8dct=1 / cqm=0 / deadzone=21,11 / fast_pskip=1 / chroma_qp_offset=-2 / threads=2 / lookahead_threads=1 / sliced_threads=0 / nr=0 / decimate=1 / interlaced=0 / bluray_compat=0 / constrained_intra=0 / bframes=9 / b_pyramid=1 / b_adapt=2 / b_bias=0 / direct=3 / weightb=1 / open_gop=0 / weightp=2 / keyint=100 / keyint_min=10 / scenecut=40 / intra_refresh=0 / rc_lookahead=100 / rc=2pass / mbtree=1 / bitrate=2500 / ratetol=1.0 / qcomp=0.60 / qpmin=0 / qpmax=69 / qpstep=4 / cplxblur=20.0 / qblur=0.5 / vbv_maxrate=3250 / vbv_bufsize=3750 / nal_hrd=none / ip_ratio=1.40 / aq=1:1.00
Язык : Russian
Default : Да
Forced : Нет

Аудио
Идентификатор : 2
Формат : AC-3
Формат/Информация : Audio Coding 3
Расширение режима : CM (complete main)
Параметр Endianness формата : Big
Идентификатор кодека : A_AC3
Продолжительность : 1 ч. 42 м.
Вид битрейта : Постоянный
Битрейт : 192 Кбит/сек
Каналы : 2 канала
Расположение каналов : Front: L R
Частота : 48,0 КГц
Битовая глубина : 16 бит
Метод сжатия : С потерями
Размер потока : 141 Мбайт (7%)
Заголовок : online movies
Язык : Russian
Default : Да
Forced : Да




реклама партнёра


Вернуться к началу
 Профиль  
 
   Похожие торренты   Автор   Торрент   Размер 
В этой теме нет новых непрочитанных сообщений. Вода и огонь / Water and Fire / Su ve Ates [драма, мелодрама, 2013] BDRip 720p, avo

Dracon

15 | 5

7.94 ГБ

В этой теме нет новых непрочитанных сообщений. Моцарт – навсегда / For Ever Mozart [драма, 1996] BDRip 720p, Dvo+Sub

salma3

32 | 15

4.96 ГБ

В этой теме нет новых непрочитанных сообщений. Дрейф / Open Water 2: Adrift [триллер, драма, 2006] BDRip 720p, Dub+Dvo+Sub

salma3

24 | 7

7.91 ГБ

В этой теме нет новых непрочитанных сообщений. Лето белой воды / White Water Summer [драма, приключения, 1987] WEB-DL 720p, Mvo

salma3

14 | 4

3.23 ГБ

В этой теме нет новых непрочитанных сообщений. Любой ценой / Hell or High Water [Драма, криминал, 2016] WEB-DL 720p, Dub [iTunes]

marya111

483 | 25

3 ГБ

В этой теме нет новых непрочитанных сообщений. Искатель воды / The Water Diviner (Рассел Кроу) [Военный, Драма, 2014] BDRip 720p, Dub [iTunes]

Dracon

10 | 1

5.9 ГБ

В этой теме нет новых непрочитанных сообщений. Искатель воды / The Water Diviner (Рассел Кроу) [Военный, Драма, 2014] BDRip 720p [Студия Пиратского Дубляжа]

Dracon

90 | 7

4.84 ГБ


Начать новую тему Ответить на тему  [ 1 сообщение ] 




Для Мосгорсуда, Роскомнадзора и рекламодателей:: mosgorsud-torrent[собачка]yandex.ru