Торрент файл
скачать торрент магнет ссылка Добавлен: 20 апр 2014, 22:52
Размер: 1.41 ГБ
Сидеров: 2
Личеров: 4
Статус: (salma3)
Автор

СообщениеДобавлено: 20 апр 2014, 22:52 

Не в сети
Супермодератор
Аватара пользователя
Дата регистрации:
15 фев 2012, 16:44
Возраст: 27
Спасибо: 6062 / 2116
Сообщения: 29577
Ложь прошлого / Past Lies

Жанр: Драма
Год выпуска: 2008
Режиссер: Терри Ингрэм

В ролях: Эд Эндерс, Джулия Андерсон, Пол Биттанте, Дженнифер Коппинг, Агам Дарши, Николь Эггерт, Джейсон Гриффит, Чела Хорсдэл, Луис Хавьер, Колин Лоуренс

О фильме:У Ким Фёрст есть всё: крутой джип, карьера, любящие муж и сын. Но когда её бывший муж Лоуренс Геллер выходит из тюрьмы, Ким приходится взглянуть в лицо прошлому, которое она так хотела забыть. Лоуренс начинает преследовать и шантажом пытается заставить Ким помочь ему украсть четвёртый по величине бриллиант в мире. Камень выставлен в музее, где работает муж Ким.



Страна: Канада
Продолжительность: 01:25:23
Перевод: Профессиональный [двухголосый]

Файл
Качество: TVRip
Формат файла: AVI
Видео кодек: DivX
Аудио кодек: AC3
Видео: DivX, 2155 Кбит/с, 704х384
Аудио: АС3, 2 ch, 192 Кбит/с

Семпл

Общее
Полное имя : D:залитьЛожь прошлого.avi
Формат : AVI
Формат/Информация : Audio Video Interleave
Размер файла : 1,41 Гбайт
Продолжительность : 1 ч. 25 м.
Общий поток : 2357 Кбит/сек
Программа кодирования : VirtualDubMod 1.5.10.2 (build 2540/release)
Библиотека кодирования : VirtualDubMod build 2540/release

Видео
Идентификатор : 0
Формат : MPEG-4 Visual
Параметр BVOP формата : 1
Параметр QPel формата : Нет
Параметр GMC формата : Без точки перехода
Параметр матрицы формата : Default (H.263)
Режим смешивания : Сжатый битовый поток
Идентификатор кодека : DX50
Идентификатор кодека/Подсказка : DivX 5
Продолжительность : 1 ч. 25 м.
Битрейт : 2155 Кбит/сек
Ширина : 704 пикселя
Высота : 384 пикселя
Соотношение сторон : 1,85:1
Частота кадров : 25,000 кадров/сек
Цветовое пространство : YUV
Субдискретизация насыщенности : 4:2:0
Битовая глубина : 8 бит
Тип развёртки : Прогрессивная
Метод сжатия : С потерями
Бит/(Пиксели*Кадры) : 0.319
Размер потока : 1,29 Гбайт (91%)
Библиотека кодирования : DivX 6.8.5 (UTC 2009-08-20)

Аудио
Идентификатор : 1
Формат : AC-3
Формат/Информация : Audio Coding 3
Расширение режима : CM (complete main)
Параметр Endianness формата : Big
Идентификатор кодека : 2000
Продолжительность : 1 ч. 25 м.
Вид битрейта : Постоянный
Битрейт : 192 Кбит/сек
Каналы : 2 канала
Расположение каналов : Front: L R
Частота : 48,0 КГц
Битовая глубина : 16 бит
Метод сжатия : С потерями
Размер потока : 117 Мбайт (8%)
Выравнивание : Разделение по промежуткам
Продолжительность промежутка : 40 мс. (1,00 видеокадр)
Время предзагрузки промежутка : 500 мс.


Автор рипа:


_________________
Проголосуй за трекер Открытый торрент трекер - RUS-MEDIA.ORG

Проголосуй Открытый торрент трекер - RUS-MEDIA.ORG



реклама партнёра


Вернуться к началу
 Профиль Отправить личное сообщение  
 
   Похожие торренты   Автор   Торрент   Размер 
В этой теме нет новых непрочитанных сообщений. Разная ложь / Separate Lies [триллер, драма, мелодрама, 2005] HDTVRip, Mvo

salma3

51 | 7

1.28 ГБ

В этой теме нет новых непрочитанных сообщений. Большая маленькая ложь / Big Little Lies [S01] [драма, криминал, детектив, 2017] WEBRip, Mvo [NewStudio]

salma3

113 | 85

4.47 ГБ

В этой теме нет новых непрочитанных сообщений. Грязная ложь / Dirty Lies [Боевик, триллер, драма, криминал, 2016] DVDRip, Dvo

salma3

0 | 0

700.89 МБ

В этой теме нет новых непрочитанных сообщений. Тайны и ложь / Secrets and Lies [S02] [драма, детектив, триллер, 2016] WEB-DLRip, Dub [Кириллица]

salma3

49 | 49

4.54 ГБ

В этой теме нет новых непрочитанных сообщений. Тайны и ложь / Secrets & Lies (Майк Ли / Mike Leigh) [1996г., Франция, драма, BDRip-AVC] MVO

Alfredovich

11 | 5

3.2 ГБ

В этой теме нет новых непрочитанных сообщений. Тайны и ложь / Secrets and Lies [02x01-07 из 10] (драма, детектив, триллер, 2016) WEB-DLRip от GeneralFilm | D | Кириллица

marya111

17 | 24

3.16 ГБ

В этой теме нет новых непрочитанных сообщений. Тайны и ложь / Secrets & Lies / 1 сезон 1-10 серии из 10 [триллер, драма, детектив, 2015] WEB-DLRip, Dub [Кириллица]

salma3

230 | 39

7.23 ГБ


Начать новую тему Ответить на тему  [ 1 сообщение ] 




Для Мосгорсуда, Роскомнадзора и рекламодателей:: mosgorsud-torrent[собачка]yandex.ru