Торрент файл
скачать торрент магнет ссылка Добавлен: 15 апр 2014, 21:33
Размер: 1.46 ГБ
Сидеров: 16
Личеров: 7
Статус: (salma3)
Автор

СообщениеДобавлено: 15 апр 2014, 21:33 

Не в сети
Супермодератор
Аватара пользователя
Дата регистрации:
15 фев 2012, 16:44
Возраст: 27
Спасибо: 5130 / 2089
Сообщения: 17350
Тайные пришельцы / The Silencers

Год выпуска: 1996
Жанр: Фантастика, боевик
Режиссер: Ричард Пепин

В ролях: Джек Скалия, Дэннис Кристофер, Карлос Лаучу, Люсинда Уайст, Кларенс Уильямс III, Стивен Роу, Лэнс ЛеГолт, Мэдисон Мэйсон, Терри Пош, Билл Френзер

Описание: 8 июля 1948 года в местечке Розуэлл в США разбился инопланетный космический корабль. В 1966 году в штате Небраска на глазах у изумленной молодой женщины и ее маленькой дочки на летающую тарелку была транспортирована корова, принадлежащая фермерской семье, а глава семьи, приготовившийся открыть огонь по НЛО из охотничьего ружья, погиб то ли от светового луча, то ли от звуковой волны. В сегодняшнем Лос-Анджелесе сотрудник службы безопасности Рафферти сталкивается с представителями иных звездных миров, у которых свои планы на нашу планету и на достижения земной цивилизации. Они очень похожи на людей. Они почти такие же, как мы. Но у них слишком бледная кожа, и они ходят только в черном. Люди в черном. Тайные пришельцы, которые жаждут управлять нашей планетой. Смогут ли два полицейских — землянин Рафферти и инопланетянин Комдор из созвездия Плеяд, случайно ставший его напарником, — встать на пути злодейского замысла?..



Страна: США
Продолжительность: 01:36:32
Перевод1: Профессиональный [двухголосый]
Перевод3: Авторский [Гаврилов]
Оригинальная аудиодорожка: Английская

Файл
Качество: DVDRip
Формат файла: AVI
Видео кодек: XviD
Аудио кодек: AC3
Видео: XviD, 1577 Кбит/с, 640x480
Аудио: Русский, английский (АС3, 2 ch, 192 Кбит/с)

Семпл

Общее
Полное имя : D:залитьТайные пришельцы.avi
Формат : AVI
Формат/Информация : Audio Video Interleave
Размер файла : 1,46 Гбайт
Продолжительность : 1 ч. 36 м.
Общий поток : 2172 Кбит/сек
Программа кодирования : VirtualDubMod 1.5.10.2 (build 2540/release)
Библиотека кодирования : VirtualDubMod build 2540/release

Видео
Идентификатор : 0
Формат : MPEG-4 Visual
Профиль формата : Advanced Simple@L5
Параметр BVOP формата : 2
Параметр QPel формата : Нет
Параметр GMC формата : Без точки перехода
Параметр матрицы формата : Default (MPEG)
Идентификатор кодека : XVID
Идентификатор кодека/Подсказка : XviD
Продолжительность : 1 ч. 36 м.
Битрейт : 1577 Кбит/сек
Ширина : 640 пикселей
Высота : 480 пикселей
Соотношение сторон : 4:3
Частота кадров : 23,976 кадра/сек
Цветовое пространство : YUV
Субдискретизация насыщенности : 4:2:0
Битовая глубина : 8 бит
Тип развёртки : Прогрессивная
Метод сжатия : С потерями
Бит/(Пиксели*Кадры) : 0.214
Размер потока : 1,06 Гбайт (73%)
Библиотека кодирования : XviD 1.2.1 (UTC 2008-12-04)

Аудио #1
Идентификатор : 1
Формат : AC-3
Формат/Информация : Audio Coding 3
Расширение режима : CM (complete main)
Параметр Endianness формата : Big
Идентификатор кодека : 2000
Продолжительность : 1 ч. 36 м.
Вид битрейта : Постоянный
Битрейт : 192 Кбит/сек
Каналы : 2 канала
Расположение каналов : Front: L R
Частота : 48,0 КГц
Битовая глубина : 16 бит
Метод сжатия : С потерями
Размер потока : 133 Мбайт (9%)
Выравнивание : Разделение по промежуткам
Продолжительность промежутка : 42 мс. (1,00 видеокадр)
Время предзагрузки промежутка : 500 мс.

Аудио #2
Идентификатор : 2
Формат : AC-3
Формат/Информация : Audio Coding 3
Расширение режима : CM (complete main)
Параметр Endianness формата : Big
Идентификатор кодека : 2000
Продолжительность : 1 ч. 36 м.
Вид битрейта : Постоянный
Битрейт : 192 Кбит/сек
Каналы : 2 канала
Расположение каналов : Front: L R
Частота : 48,0 КГц
Битовая глубина : 16 бит
Метод сжатия : С потерями
Размер потока : 133 Мбайт (9%)
Выравнивание : Разделение по промежуткам
Продолжительность промежутка : 42 мс. (1,00 видеокадр)
Время предзагрузки промежутка : 500 мс.

Аудио #3
Идентификатор : 3
Формат : AC-3
Формат/Информация : Audio Coding 3
Расширение режима : CM (complete main)
Параметр Endianness формата : Big
Идентификатор кодека : 2000
Продолжительность : 1 ч. 36 м.
Вид битрейта : Постоянный
Битрейт : 192 Кбит/сек
Каналы : 2 канала
Расположение каналов : Front: L R
Частота : 48,0 КГц
Битовая глубина : 16 бит
Метод сжатия : С потерями
Размер потока : 133 Мбайт (9%)
Выравнивание : Разделение по промежуткам
Продолжительность промежутка : 42 мс. (1,00 видеокадр)
Время предзагрузки промежутка : 500 мс.


Автор рипа:


_________________



реклама партнёра


Вернуться к началу
 Профиль Отправить личное сообщение  
 
   Похожие торренты   Автор   Торрент   Размер 
В этой теме нет новых непрочитанных сообщений. Соло / Solo [фантастика, боевик, триллер, 1996] DVDRip-AVC, Mvo+Sub

salma3

4 | 6

1.7 ГБ

В этой теме нет новых непрочитанных сообщений. Минотавр / Downdraft [боевик, драма, Фантастика, 1996] DVDRip, Mvo

salma3

1 | 2

1.47 ГБ

В этой теме нет новых непрочитанных сообщений. Электра / Electra [Фантастика, боевик, триллер, 1996] DVDRip, Dvo

salma3

60 | 4

1.46 ГБ

В этой теме нет новых непрочитанных сообщений. Электра / Electra [Фантастика, боевик, триллер, 1996] DVDRip, Dvo

salma3

36 | 10

701.8 МБ

В этой теме нет новых непрочитанных сообщений. Приговор времени / Past Perfect [Фантастика, боевик, триллер, драма, 1996] DVDRip, Dvo

salma3

201 | 7

1.37 ГБ

В этой теме нет новых непрочитанных сообщений. Мятеж в космосе / Штурм четвертого купола / Assault on Dome 4 [Фантастика, боевик, 1996] DVDRip, Avo

salma3

14 | 4

1.37 ГБ

В этой теме нет новых непрочитанных сообщений. Тайные соперники / Nan quan bei tui [Боевик, боевые искусства, 1976] DVDRip-AVC, Avo

salma3

54 | 17

1.89 ГБ


Начать новую тему Ответить на тему  [ 1 сообщение ] 




Для Мосгорсуда, Роскомнадзора и рекламодателей:: mosgorsud-torrent[собачка]yandex.ru