Торрент файл
скачать торрент магнет ссылка Добавлен: 14 апр 2014, 21:56
Размер: 1.46 ГБ
Сидеров: 38
Личеров: 5
Статус: (salma3)
Автор

СообщениеДобавлено: 14 апр 2014, 22:00 

В сети
Супермодератор
Аватара пользователя
Дата регистрации:
15 фев 2012, 16:44
Возраст: 28
Спасибо: 6577 / 2143
Сообщения: 43947
Перехватчики 2 / Interceptor Force 2

Год выпуска: 2002
Жанр: Боевик Фантастика
Режиссер: Филлип Дж. Рот / Phillip J. Roth

В ролях: Оливье Грюнер, Роджер Р. Кросс, Эдриенн Уилкинсон, Элизабет Грэйсен, Алекс Джолиг, Найджел Беннетт,

Описание:
Цель определена. Враждебно настроенное существо внеземного происхождения проникает на атомную электростанцию в одной из горячих точек планеты, уничтожает весь персонал и охрану объекта.

Информация об этом инциденте поступает в секретное правительственное агентство «Перехватчики», которое занимается наблюдением за пришельцами и предотвращением вероятных угроз со стороны неведомого разума. Агентство направляет команду своих лучших профессионалов с задачей обезвредить агрессивного «гостя».



Страна: США
Продолжительность: 1:27:31
Перевод: Профессиональный (многоголосый, закадровый)

Файл
Качество: DVDRip [исх. DVD5]
Формат файла: AVI
Видео кодек: XviD
Аудио кодек: AC3
Video: 640x480 (1.33:1), 25 fps, XviD build 50 ~2000 kbps avg, 0.26 bit/pixel
Audio: 48 kHz, AC3 Dolby Digital, 3/2 (L,C,R,l,r) + LFE ch, ~384 kbps

Время Раздачи 11-00 до 16-00 + 20-00 до 03-00


Downloads\Alien_interceptors_2_2002.DVDRip.avi
Format : AVI
Format/Info : Audio Video Interleave
File size : 1.46 GiB
Duration : 1h 27mn
Overall bit rate : 2 394 Kbps
Writing application : VirtualDubMod 1.5.10.3 | http://www.virtualdub-fr.org || (build 2550/release)
Writing library : VirtualDubMod build 2550/release

Video
ID : 0
Format : MPEG-4 Visual
Format profile : Advanced Simple@L5
Format settings, BVOP : 3
Format settings, QPel : No
Format settings, GMC : No warppoints
Format settings, Matrix : Default (H.263)
Codec ID : XVID
Codec ID/Hint : XviD
Duration : 1h 27mn
Bit rate : 2 000 Kbps
Width : 640 pixels
Height : 480 pixels
Display aspect ratio : 4:3
Frame rate : 25.000 fps
Color space : YUV
Chroma subsampling : 4:2:0
Bit depth : 8 bits
Scan type : Progressive
Compression mode : Lossy
Bits/(Pixel*Frame) : 0.260
Stream size : 1.22 GiB (84%)
Writing library : XviD 1.2.1 (UTC 2008-12-04)

Audio
ID : 1
Format : AC-3
Format/Info : Audio Coding 3
Mode extension : CM (complete main)
Format settings, Endianness : Big
Codec ID : 2000
Duration : 1h 27mn
Bit rate mode : Constant
Bit rate : 384 Kbps
Channel(s) : 6 channels
Channel positions : Front: L C R, Side: L R, LFE
Sampling rate : 48.0 KHz
Bit depth : 16 bits
Compression mode : Lossy
Stream size : 240 MiB (16%)
Alignment : Split accross interleaves
Interleave, duration : 40 ms (1.00 video frame)
Interleave, preload duration : 500 ms


Релиз от:


_________________
Проголосуй за трекер Открытый торрент трекер - RUS-MEDIA.ORG

Проголосуй Открытый торрент трекер - RUS-MEDIA.ORG



реклама партнёра


Вернуться к началу
 Профиль Отправить личное сообщение  
 
   Похожие торренты   Автор   Торрент   Размер 
В этой теме нет новых непрочитанных сообщений. Человек из будущего / The Tomorrow Man [фантастика, боевик, 2002] DVDRip, Mvo

salma3

19 | 4

1.45 ГБ

В этой теме нет новых непрочитанных сообщений. Звёздные войны: Пробуждение силы / Star Wars: Episode VII - The Force Awakens [Фантастика, фэнтези, боевик, 2015] BDRemux 1080p, Dub

salma3

32 | 25

53.54 ГБ

В этой теме нет новых непрочитанных сообщений. Питоны 2 / Python 2 [ужасы, фантастика, боевик, триллер, 2002] DVDRip, Dvo

salma3

15 | 2

1.45 ГБ

В этой теме нет новых непрочитанных сообщений. Сила пятерых / Force: Five [боевик, 1981] DVDRip, Avo

salma3

21 | 3

1.46 ГБ

В этой теме нет новых непрочитанных сообщений. Звёздные войны: Пробуждение силы / Star Wars: Episode VII - The Force Awakens [фантастика, приключения, боевик, 2015] BDRip-AVC, Dub [чистый звук]

salma3

73 | 1

2.73 ГБ

В этой теме нет новых непрочитанных сообщений. Звёздные войны: Пробуждение силы / Star Wars: The Force Awakens [Фантастика, фэнтези, боевик, приключения, 2015] HDRip, Dub [чистый звук]

salma3

534 | 15

1.46 ГБ

В этой теме нет новых непрочитанных сообщений. Звёздные войны: Пробуждение силы / Star Wars: Episode VII - The Force Awakens (фантастика, фэнтези, боевик, приключения, 2015) BDRip-AVC от HELLYWOOD | Лицензия

marya111

337 | 27

2.91 ГБ


Начать новую тему Ответить на тему  [ 1 сообщение ] 




Для Мосгорсуда, Роскомнадзора и рекламодателей:: mosgorsud-torrent[собачка]yandex.ru