Торрент файл
скачать торрент магнет ссылка Добавлен: 13 апр 2014, 13:35
Размер: 1.46 ГБ
Сидеров: 0
Личеров: 2
Статус: (salma3)
Автор

СообщениеДобавлено: 13 апр 2014, 13:35 

В сети
Супермодератор
Аватара пользователя
Дата регистрации:
15 фев 2012, 16:44
Возраст: 28
Спасибо: 6593 / 2145
Сообщения: 44206
Игорный дом / House of Games

Год выхода: 1987
Жанр: триллер, криминал, детектив
Режиссер: Дэвид Мэмет

В ролях: Линдси Краус, Джо Мантенья, Майк Нассбаум, Лилия Скала, Дж.Т. Уолш, Уилло Хаусман, Карен Колхаас, Стивен Голдстин, Джек Уоллес, Рикки Джей

О фильме:
Маргарет Фордт - преуспевающая женщина-психиатр. Она написала книгу, которая хорошо продается, у нее есть деньги, интересная работа, но все чаще стало появляться чувство неудовлетворенности. Случай сводит ее с мошенником Майклом, обаятельным и интересным человеком, склонным к философствованию, и вскоре скука ее рассеивается, так как по ее просьбе он начинает посвящать ее в секреты профессии. На этом материале она намеревается написать книгу и постепенно влюбляется в него. Но Маргарет даже не представляет, что в скором времени станет жертвой тонко спланированной, широкомасштабной аферы.



Страна: США
Продолжительность: 01:41:47
Перевод: Дублированный, [Варус-Видео]

Файл
Качество: WEB-DLRip
Формат файла: AVI
Видео кодек: DviX
Аудио кодек: AC3
Видео: 720x384, 23.976 fps, 1850 kbps
Звук: 48 kHz, AC3, 2/0 (L,R) ch, ~192.00 kbps

Общее
Полное имя : igorniy.dom.1987.WEB-DLRip.avi
Формат : AVI
Формат/Информация : Audio Video Interleave
Размер файла : 1,46 Гбайт
Продолжительность : 1 ч. 41 м.
Общий поток : 2051 Кбит/сек
Программа кодирования : VirtualDubMod 1.5.10.2 (build 2542/release)
Библиотека кодирования : VirtualDubMod build 2542/release

Видео
Идентификатор : 0
Формат : MPEG-4 Visual
Профиль формата : Advanced Simple@L5
Параметр BVOP формата : 1
Параметр QPel формата : Нет
Параметр GMC формата : Без точки перехода
Параметр матрицы формата : Выборочная
Идентификатор кодека : XVID
Идентификатор кодека/Подсказка : XviD
Продолжительность : 1 ч. 41 м.
Битрейт : 1850 Кбит/сек
Ширина : 720 пикс.
Высота : 384 пикс.
Соотношение сторон : 1,875
Частота кадров : 23,976 кадр/сек
Цветовое пространство : YUV
Подвыборка цветности : 4:2:0
Битовая глубина : 8 бит
Тип развёртки : Прогрессивная
Метод сжатия : С потерями
Бит/(Пиксели*Кадры) : 0.279
Размер потока : 1,32 Гбайт (90%)
Библиотека кодирования : XviD 73

Аудио
Идентификатор : 1
Формат : AC-3
Формат/Информация : Audio Coding 3
Расширение режима : CM (complete main)
Идентификатор кодека : 2000
Продолжительность : 1 ч. 41 м.
Вид битрейта : Постоянный
Битрейт : 192 Кбит/сек
Канал(ы) : 2 канала(ов)
Расположение каналов : Front: L R
Частота : 48,0 КГц
Битовая глубина : 16 бит
Метод сжатия : С потерями
Размер потока : 140 Мбайт (9%)
Выравнивание : Разделение по промежуткам
Продолжительность промежутка : 42 мс. (1,00 видеокадр)
Время предзагрузки промежутка : 500 ms


Релиз от: Leon-masl


_________________
Проголосуй за трекер Открытый торрент трекер - RUS-MEDIA.ORG

Проголосуй Открытый торрент трекер - RUS-MEDIA.ORG



реклама партнёра


Вернуться к началу
 Профиль Отправить личное сообщение  
 
   Похожие торренты   Автор   Торрент   Размер 
В этой теме нет новых непрочитанных сообщений. Игорный дом / House of Games [триллер, криминал, детектив, 1987] WEB-DL 720p, Dubb

salma3

27 | 12

3.8 ГБ

В этой теме нет новых непрочитанных сообщений. Окно спальни / The Bedroom Window [триллер, криминал, детектив, 1987] WEB-DLRip-AVC, Dub

salma3

0 | 0

1.46 ГБ

В этой теме нет новых непрочитанных сообщений. Окно спальни / The Bedroom Window [триллер, криминал, детектив, 1987] WEB-DL 720p, Dvo+Sub

salma3

139 | 32

4.35 ГБ

В этой теме нет новых непрочитанных сообщений. Окно спальни / The Bedroom Window [триллер, криминал, детектив, 1987] WEB-DL 720p, Dub

salma3

120 | 54

4 ГБ

В этой теме нет новых непрочитанных сообщений. Черная вдова / Black Widow [Детектив, Триллер, Криминал, 1987] BDRip, Mvo

salma3

74 | 1

1.46 ГБ

В этой теме нет новых непрочитанных сообщений. Убийства по чёткам / The Rosary Murders [триллер, драма, криминал, детектив, 1987] HDRip, Dvo

salma3

91 | 5

1.59 ГБ

В этой теме нет новых непрочитанных сообщений. Убийства по чёткам / The Rosary Murders [триллер, драма, криминал, детектив, 1987] BDRip 720p, Dvo

salma3

23 | 39

8.47 ГБ


Начать новую тему Ответить на тему  [ 1 сообщение ] 




Для Мосгорсуда, Роскомнадзора и рекламодателей:: mosgorsud-torrent[собачка]yandex.ru