Торрент файл
скачать торрент магнет ссылка Добавлен: 16 апр 2011, 21:23
Размер: 2.19 ГБ
Сидеров: 11
Личеров: 10
Автор

СообщениеДобавлено: 16 апр 2011, 21:23 

Не в сети
Супермодератор
Аватара пользователя
Дата регистрации:
22 май 2010, 11:03
Возраст: 31
Спасибо: 7509 / 13
Сообщения: 49940
Разыскивается герой / Hero Wanted



Перевод: Профессиональный (полное дублирование)
Субтитры: Отсутствуют
Слоган: «Дорога в ад выстлана благими намерениями»
Формат: HDRip (720p), MKV, H.264, AC3

Страна: США

Режиссер: Брайан Смирз
Жанр: Боевик
Продолжительность: 01:34:38
Год выпуска: 2008

В ролях: Куба Гудинг мл., Рей Лиотта, Норман Ридус, Томми Фланагэн, Жан Смарт, Ким Коатс, Бен Кросс, Криста Кэмпбелл, Тодд Дженсен

Описание: В маленьком городке мусорщик Лиам вытаскивает из горящей машины девочку и становится локальной знаменитостью. Вскоре по странному совпадению он же оказывается в банке, который грабят местные отморозки, и тоже ведет себя довольно героически, хотя и без толку. Между тем депрессия, в которой Лиам пребывает после гибели жены, лишь усугубляется, а полиция во главе с ворчливым детективом начинает находить трупы участников ограбления...







Видео: 1280*688(2,35:1), MPEG4/ISO/AVC, , х264, 23,976 кадр/сек, 2861 Кбит/сек, 0.135 Bits/(Pixel*Frame)
Аудио: 48,0 КГц, AC3 CBR, 6 канала(ов), Front:(L,C,R,Side: L,R, LFE), 384 Кбит/сек

Релиз группы:

Доп. информация: Рип c Blu-Ray (720p)

D:\Films\Hero.Wanted.[nolimits-team].mkv
General
Complete name : D:\Films\Hero.Wanted.[nolimits-team].mkv
Format : Matroska
File size : 2.19 GiB
Duration : 1h 34mn
Overall bit rate : 3 311 Kbps
Movie name : Rip by PunisheR [nolimits-team.ru]
Encoded date : UTC 2011-02-06 00:03:55
Writing application : mkvmerge v3.2.0 ('Beginnings') built on Feb 12 2010 16:46:17
Writing library : libebml v0.7.9 + libmatroska v0.8.1
Video #2
ID : 2
Format : AVC
Format/Info : Advanced Video Codec
Format profile :
Format settings, CABAC : Yes
Format settings, ReFrames : 3 frames
Muxing mode : Container profile=Unknown@4.1
Codec ID : V_MPEG4/ISO/AVC
Duration : 1h 34mn
Bit rate : 2 861 Kbps
Nominal bit rate : 2 947 Kbps
Width : 1 280 pixels
Height : 688 pixels
Display aspect ratio : 1.860
Frame rate : 23.976 fps
Resolution : 24 bits
Colorimetry : 4:2:0
Scan type : Progressive
Bits/(Pixel*Frame) : 0.135
Stream size : 1.89 GiB (86%)
Title : Hero.Wanted.[nolimits-team]
Writing library : x264 core 112 r1867 22bfd31
Encoding settings : cabac=1 / ref=1 / deblock=1:0:0 / analyse=0x3:0x3 / me=dia / subme=1 / psy=1 / psy_rd=0.00:0.00 / mixed_ref=0 / me_range=16 / chroma_me=1 / trellis=0 / 8x8dct=1 / cqm=0 / deadzone=21,11 / fast_pskip=1 / chroma_qp_offset=0 / threads=6 / sliced_threads=0 / slices=4 / nr=0 / decimate=1 / interlaced=0 / constrained_intra=0 / bframes=3 / b_pyramid=1 / b_adapt=1 / b_bias=0 / direct=1 / weightb=1 / open_gop=0 / weightp=1 / keyint=24 / keyint_min=1 / scenecut=40 / intra_refresh=0 / rc_lookahead=0 / rc=abr / mbtree=0 / bitrate=2947 / ratetol=1.0 / qcomp=0.60 / qpmin=0 / qpmax=51 / qpstep=4 / vbv_maxrate=17500 / vbv_bufsize=14500 / nal_hrd=vbr / ip_ratio=1.10 / pb_ratio=1.10 / aq=1:1.00
Language : English
Audio #1
ID : 1
Format : AC-3
Format/Info : Audio Coding 3
Codec ID : A_AC3
Duration : 1h 34mn
Bit rate mode : Constant
Bit rate : 384 Kbps
Channel(s) : 6 channels
Channel positions : Front: L C R, Surround: L R, LFE
Sampling rate : 48.0 KHz
Stream size : 260 MiB (12%)
Title : Dub
Language : Russian













реклама партнёра


Вернуться к началу
 Профиль Отправить личное сообщение  
 
   Похожие торренты   Автор   Торрент   Размер 
В этой теме нет новых непрочитанных сообщений. Американский герой / American Hero [фантастика, боевик, комедия, 2015] HDRip, Avo

salma3

4449 | 174

1.37 ГБ

В этой теме нет новых непрочитанных сообщений. Я твой герой / Main Tera Hero [Боевик, мелодрама, комедия, 2014] HDRip, Mvo+Sub

salma3

4 | 4

2.18 ГБ

В этой теме нет новых непрочитанных сообщений. Герой и Ужас / Hero and the Terror [триллер, боевик, драма, криминал, 1988] HDRip, Mvo+avo

salma3

47 | 19

1.85 ГБ

В этой теме нет новых непрочитанных сообщений. Американский герой / American Hero (Ник Лав / Nick Love) [2015, Фантастика, боевик, комедия, HDRip] avo

Nickolas3435

250 | 9

1.2 ГБ

В этой теме нет новых непрочитанных сообщений. Герой / Hero [Боевик, драма, мелодрама, 2015] WEB-DLRip 720p, Dvo+Sub

salma3

992 | 205

2.19 ГБ

В этой теме нет новых непрочитанных сообщений. Американский герой / American Hero [фантастика, боевик, комедия, 2015] BDRip 720р Avo+Sub

salma3

683 | 115

3.92 ГБ

В этой теме нет новых непрочитанных сообщений. Герой с плаката / Phata Poster Nikhla Hero [боевик, комедия, 2013] DVDRip, Mvo+Sub

salma3

223 | 25

1.9 ГБ


Начать новую тему Ответить на тему  [ 1 сообщение ] 




Для Мосгорсуда, Роскомнадзора и рекламодателей:: mosgorsud-torrent[собачка]yandex.ru