Торрент файл
скачать торрент магнет ссылка Добавлен: 12 апр 2014, 15:26
Размер: 2.21 ГБ
Сидеров: 477
Личеров: 7
Статус: (salma3)
Автор

СообщениеДобавлено: 12 апр 2014, 15:26 

Не в сети
Зам. Админа
Аватара пользователя
Дата регистрации:
02 дек 2010, 12:39
Спасибо: 12460 / 214
Сообщения: 27968
Год выхода: 2013
Жанр: драма
Режиссер: Джеймс Хоуз
В ролях: Уильям Хёрт, Брюс Гринвуд, Джоэнн Уэлли, Брайан Деннехи, Кевин МакНэлли, Лэнгли Кирквуд, Ив Бест, Шон Майкл, Генри Гудман, Роберт Хоббс

О фильме:
Кинокартина основана на реальных, трагических событиях, которые произошли в США, 1986 год. Космический корабль Челленджер, взорвался на 73 секунде полета, погибли все семеро членов экипажа. Что же стало причиной катастрофы? Известному ученому Ричарду Фейнману, поручено расследовать это дело и выяснить реальные причины трагедии.


Выпущено: Великобритания, США
Продолжительность: 01:29:17
Озвучивание: Профессиональное (многоголосое) [Amedia]

Формат: MKV
Качество: HDTV 720p [EbP]
Видео: 3084 kb/s, 1280x720
Аудио: Russian / English: AC3, 192 kb/s (2 ch)
Размер: 2.21 Gb
Скачать: Сэмпл


Общее
Chelendzher.2013.HDTV.720p.CINEMANIA.mkv
Формат : Matroska
Версия формата : Version 4 / Version 2
Размер файла : 2,21 Гбайт
Продолжительность : 1 ч. 29 м.
Общий поток : 3538 Кбит/сек
Название фильма : Release Group CINEMANIA
Дата кодирования : UTC 2014-04-12 10:11:23
Программа кодирования : mkvmerge v6.8.0 ('Theme for Great Cities') 64bit built on Mar 2 2014 21:34:26
Библиотека кодирования : libebml v1.3.0 + libmatroska v1.4.1

Видео
Идентификатор : 1
Формат : AVC
Формат/Информация : Advanced Video Codec
Профиль формата : High@L4.1
Параметр CABAC формата : Да
Параметр ReFrames формата : 9 кадров
Идентификатор кодека : V_MPEG4/ISO/AVC
Продолжительность : 1 ч. 29 м.
Битрейт : 3084 Кбит/сек
Ширина : 1280 пикселей
Высота : 720 пикселей
Соотношение сторон : 16:9
Режим частоты кадров : Постоянный
Частота кадров : 25,000 кадров/сек
Цветовое пространство : YUV
Субдискретизация насыщенности : 4:2:0
Битовая глубина : 8 бит
Тип развёртки : Прогрессивная
Бит/(Пиксели*Кадры) : 0.134
Размер потока : 1,92 Гбайт (87%)
Заголовок : Release Group CINEMANIA
Библиотека кодирования : x264 core 133 r2334 a3ac64b
Настройки программы : cabac=1 / ref=9 / deblock=1:-3:-3 / analyse=0x3:0x133 / me=tesa / subme=11 / psy=1 / psy_rd=1.05:0.00 / mixed_ref=1 / me_range=32 / chroma_me=1 / trellis=2 / 8x8dct=1 / cqm=0 / deadzone=21,11 / fast_pskip=0 / chroma_qp_offset=-2 / threads=6 / lookahead_threads=1 / sliced_threads=0 / nr=0 / decimate=0 / interlaced=0 / bluray_compat=0 / constrained_intra=0 / bframes=8 / b_pyramid=2 / b_adapt=2 / b_bias=0 / direct=3 / weightb=1 / open_gop=0 / weightp=2 / keyint=250 / keyint_min=25 / scenecut=40 / intra_refresh=0 / rc=crf / mbtree=0 / crf=17.0 / qcomp=0.60 / qpmin=0 / qpmax=69 / qpstep=4 / ip_ratio=1.40 / pb_ratio=1.30 / aq=1:0.80
Язык : English
Default : Да
Forced : Нет

Аудио #1
Идентификатор : 2
Формат : AC-3
Формат/Информация : Audio Coding 3
Расширение режима : CM (complete main)
Параметр Endianness формата : Big
Идентификатор кодека : A_AC3
Продолжительность : 1 ч. 29 м.
Вид битрейта : Постоянный
Битрейт : 192 Кбит/сек
Каналы : 2 канала
Расположение каналов : Front: L R
Частота : 48,0 КГц
Битовая глубина : 16 бит
Метод сжатия : С потерями
Размер потока : 123 Мбайт (5%)
Заголовок : Amedia
Язык : Russian
Default : Да
Forced : Да

Аудио #2
Идентификатор : 3
Формат : AC-3
Формат/Информация : Audio Coding 3
Расширение режима : CM (complete main)
Параметр Endianness формата : Big
Идентификатор кодека : A_AC3
Продолжительность : 1 ч. 29 м.
Вид битрейта : Постоянный
Битрейт : 192 Кбит/сек
Каналы : 2 канала
Расположение каналов : Front: L R
Частота : 48,0 КГц
Битовая глубина : 16 бит
Метод сжатия : С потерями
Размер потока : 123 Мбайт (5%)
Язык : English
Default : Нет
Forced : Нет




реклама партнёра


Вернуться к началу
 Профиль  
 
   Похожие торренты   Автор   Торрент   Размер 
В этой теме нет новых непрочитанных сообщений. Челленджер / The Challenger [драма, 2013] HDTVRip, Mvo

salma3

491 | 11

1.37 ГБ

В этой теме нет новых непрочитанных сообщений. Полицейская история 2014 / Jing Cha Gu Shi 2013 [боевик, триллер, драма, криминал, 2013] HDTV 720p, Dvo+Sub

salma3

196 | 6

1.95 ГБ

В этой теме нет новых непрочитанных сообщений. Претендент / The Challenger [Драма, боевик, спорт, 2015] WEB-DLRip, dvo

Dracon

1961 | 123

1.45 ГБ

В этой теме нет новых непрочитанных сообщений. Конец убийствам / Zhi Sha / An End To Killing [боевик, исторический, драма, 2013] HDTV 720p, dvo

Dracon

186 | 318

4.51 ГБ

В этой теме нет новых непрочитанных сообщений. Вентворт / Wentworth [S01] [криминал, 2013] HDTV 720p,WEB-DL 720p,WEB-DL 1080p, mvo [BaibaKo]

Ανδρέας

27 | 32

14.02 ГБ

В этой теме нет новых непрочитанных сообщений. 11 часов / 11 A.M. [фантастика, триллер, 2013] HDTV 720p, Dvo

Dracon

82 | 6

2.74 ГБ

В этой теме нет новых непрочитанных сообщений. Memphis May Fire - Challenger [2012, Post-Hardcore, MP3]

PriZraK

0 | 1

98.03 МБ


Начать новую тему Ответить на тему  [ 1 сообщение ] 




Для Мосгорсуда, Роскомнадзора и рекламодателей:: mosgorsud-torrent[собачка]yandex.ru