Торрент файл
скачать торрент магнет ссылка Добавлен: 12 апр 2014, 13:24
Размер: 1.46 ГБ
Сидеров: 48
Личеров: 6
Статус: (salma3)
Автор

СообщениеДобавлено: 12 апр 2014, 13:24 

Не в сети
Супермодератор
Аватара пользователя
Дата регистрации:
15 фев 2012, 16:44
Возраст: 27
Спасибо: 5130 / 2089
Сообщения: 17350
Перехватчики / Alien interceptors

Год выпуска: 1999
Жанр: фантастика, боевик
Режиссер: Филлип Дж. Рот / Phillip J. Roth

В ролях: Оливье Грюнер, Брэд Дуриф, Эрни Хадсон, Уильям Забка, Гленн Пламмер, Эйнджел Борис, Марк Адэйр-Риос, Стефан Лысенко

Описание:
"Перехватчики" - элитная команда специально тренированных солдат на случай внезапного инопланетного вторжения. Спецподразделение "перехватчиков", возглавляемое лейтенантом Шоном Ламбертом, получает задание произвести разведку места аварийной посадки инопланетного корабля. Ламберту и его команде предстоит жестокая и кровопролитная схватка с пришельцами, способными принимать человеческий облик. Ситуация осложняется постоянными стычками с местными бандитами, считающими себя полновластными хозяевами территории.



Страна: США
Продолжительность: 01:24:02
Перевод: Профессиональный (многоголосый, закадровый)

Файл
Качество: DVDRip [исх. DVD5]
Формат файла: AVI
Видео кодек: XviD
Аудио кодек: AC3
Video: 640x480 (1.33:1), 25 fps, XviD build 50 ~2150 kbps avg, 0.28 bit/pixel
Audio: 48 kHz, AC3 Dolby Digital, 2/0 (L,R) ch, ~192 kbps

Время Раздачи 11-00 до 16-00 + 20-00 до 03-00


Downloads\Alien_interceptors_1999.DVDRip.avi
Format : AVI
Format/Info : Audio Video Interleave
File size : 1.46 GiB
Duration : 1h 29mn
Overall bit rate : 2 352 Kbps
Writing application : VirtualDubMod 1.5.10.3 | http://www.virtualdub-fr.org || (build 2550/release)
Writing library : VirtualDubMod build 2550/release

Video
ID : 0
Format : MPEG-4 Visual
Format profile : Advanced Simple@L5
Format settings, BVOP : 3
Format settings, QPel : No
Format settings, GMC : No warppoints
Format settings, Matrix : Default (H.263)
Codec ID : XVID
Codec ID/Hint : XviD
Duration : 1h 29mn
Bit rate : 2 150 Kbps
Width : 640 pixels
Height : 480 pixels
Display aspect ratio : 4:3
Frame rate : 25.000 fps
Color space : YUV
Chroma subsampling : 4:2:0
Bit depth : 8 bits
Scan type : Progressive
Compression mode : Lossy
Bits/(Pixel*Frame) : 0.280
Stream size : 1.34 GiB (91%)
Writing library : XviD 1.2.1 (UTC 2008-12-04)

Audio
ID : 1
Format : AC-3
Format/Info : Audio Coding 3
Mode extension : CM (complete main)
Format settings, Endianness : Big
Codec ID : 2000
Duration : 1h 28mn
Bit rate mode : Constant
Bit rate : 192 Kbps
Channel(s) : 2 channels
Channel positions : Front: L R
Sampling rate : 48.0 KHz
Bit depth : 16 bits
Compression mode : Lossy
Stream size : 122 MiB (8%)
Alignment : Split accross interleaves
Interleave, duration : 40 ms (1.00 video frame)
Interleave, preload duration : 500 ms


Релиз от:


_________________



реклама партнёра


Вернуться к началу
 Профиль Отправить личное сообщение  
 
   Похожие торренты   Автор   Торрент   Размер 
В этой теме нет новых непрочитанных сообщений. Перехватчики 2 / Interceptor Force 2 [Боевик Фантастика, 2002] DVDRip, Mvo

salma3

38 | 5

1.46 ГБ

В этой теме нет новых непрочитанных сообщений. Тварь / Alien Lockdown / Creature [Фантастика, боевик, триллер, 2004] DVDRip, Dvo

salma3

12 | 2

1.45 ГБ

В этой теме нет новых непрочитанных сообщений. Чужие против ниндзя / Alien vs. Ninja [ужасы, боевик, фантастика, комедия, 2010] DVDRip, Mvo

salma3

4 | 2

1.37 ГБ

В этой теме нет новых непрочитанных сообщений. Чужая нация / Alien Nation [Фантастика, боевик, криминал, 1988] BDRip, Mvo+Avo

salma3

91 | 3

1.45 ГБ

В этой теме нет новых непрочитанных сообщений. Гостья из космоса / Чужой пришелец / Alien Intruder [Фантастика, боевик, 1993] VHSRip, Avo

salma3

18 | 7

1.47 ГБ

В этой теме нет новых непрочитанных сообщений. Чужая нация / Alien Nation [фантастика, боевик, криминал, 1988] BDRemux 1080p, Mvo

salma3

2 | 1

21.73 ГБ

В этой теме нет новых непрочитанных сообщений. Мятежник / Cold Harvest [Фантастика, боевик, 1999] DVDRip, Avo

salma3

50 | 4

1.46 ГБ


Начать новую тему Ответить на тему  [ 1 сообщение ] 




Для Мосгорсуда, Роскомнадзора и рекламодателей:: mosgorsud-torrent[собачка]yandex.ru