Торрент файл
скачать торрент магнет ссылка Добавлен: 11 апр 2014, 14:43
Размер: 1.37 ГБ
Сидеров: 19
Личеров: 3
Статус: (salma3)
Автор

СообщениеДобавлено: 11 апр 2014, 14:43 

Не в сети
Супермодератор
Аватара пользователя
Дата регистрации:
15 фев 2012, 16:44
Возраст: 27
Спасибо: 5121 / 2089
Сообщения: 17296
Душа убийцы / Soul Assassin

Год выпуска: 2001
Жанр: Боевик
Режиссер: Лоуренс Малкин

В ролях: Скит Ульрих, Кристи Суонсон, Дерек де Линт, Рина Оуэн, Энтони Камерлинг, Серж-Анри Вальке, Николас Айронс, Том Хоффман, Кэтерин Лэнг, Андре Аренд ван де Ноорд

Описание: Кевин Берк — молодой амбициозный секретный агент — нанят могущественной международной компанией, которой руководит зловещий Карл Йоргенсен. Он относится к Кевину как к собственному сыну, зная историю трагической гибели его отца. Но трагедия входит в жизнь Кевина снова, когда убивают его невесту. На этот раз он клянется сам выследить убийцу. С этого момента он вступает в опасную игру, постепенно узнавая об окружающей жизни то, что даже не хотел бы знать. Была ли Розалинд вовлечена в мировую преступную сеть? Что хранится на диске Интерпола и кем в действительности является сын Йоргенсена Джуниор?



Страна: Нидерланды
Продолжительность: 01:33:00
Перевод: Профессиональный [многоголосый]

Файл
Качество: DVDRip
Формат файла: AVI
Видео кодек: XviD
Аудио кодек: AC3
Видео: XviD, 1904 Кбит/с, 704x464
Аудио: АС3, 2 ch, 192 Кбит/с

Общее
Полное имя : D:1АААДуша убийцы.avi
Формат : AVI
Формат/Информация : Audio Video Interleave
Размер файла : 1,37 Гбайт
Продолжительность : 1 ч. 32 м.
Общий поток : 2105 Кбит/сек
Программа кодирования : VirtualDubMod 1.5.10.3 | http://www.virtualdub-fr.org || (build 2550/release)
Библиотека кодирования : VirtualDubMod build 2550/release

Видео
Идентификатор : 0
Формат : MPEG-4 Visual
Профиль формата : Advanced Simple@L5
Параметр BVOP формата : 2
Параметр QPel формата : Нет
Параметр GMC формата : Без точки перехода
Параметр матрицы формата : Default (MPEG)
Идентификатор кодека : XVID
Идентификатор кодека/Подсказка : XviD
Продолжительность : 1 ч. 32 м.
Битрейт : 1904 Кбит/сек
Ширина : 704 пикселя
Высота : 464 пикселя
Соотношение сторон : 3:2
Частота кадров : 23,976 кадра/сек
Цветовое пространство : YUV
Субдискретизация насыщенности : 4:2:0
Битовая глубина : 8 бит
Тип развёртки : Прогрессивная
Метод сжатия : С потерями
Бит/(Пиксели*Кадры) : 0.243
Размер потока : 1,24 Гбайт (90%)
Библиотека кодирования : XviD 1.2.1 (UTC 2008-12-04)

Аудио
Идентификатор : 1
Формат : AC-3
Формат/Информация : Audio Coding 3
Расширение режима : CM (complete main)
Параметр Endianness формата : Big
Идентификатор кодека : 2000
Продолжительность : 1 ч. 32 м.
Вид битрейта : Постоянный
Битрейт : 192 Кбит/сек
Каналы : 2 канала
Расположение каналов : Front: L R
Частота : 48,0 КГц
Битовая глубина : 16 бит
Метод сжатия : С потерями
Размер потока : 128 Мбайт (9%)
Выравнивание : Разделение по промежуткам
Продолжительность промежутка : 42 мс. (1,00 видеокадр)
Время предзагрузки промежутка : 500 мс.



Релиз группа:Автор рипа:


_________________



реклама партнёра


Вернуться к началу
 Профиль Отправить личное сообщение  
 
   Похожие торренты   Автор   Торрент   Размер 
В этой теме нет новых непрочитанных сообщений. Кредо убийцы / Assassin's Game (Ануп Ранги / Anoop Rangi ) [2015г., боевик, DVDRip] DVO

Alfredovich

8 | 2

1.46 ГБ

В этой теме нет новых непрочитанных сообщений. Реальные воспоминания международного убийцы / True Memoirs of an International Assassin [боевик, комедия, 2016] WEB-DLRip, Mvo

salma3

5245 | 1036

1.46 ГБ

В этой теме нет новых непрочитанных сообщений. Уличный боец: Кулак убийцы / Street Fighter: Assassin's Fist [Боевик, триллер, драма, 2014] BDRip, Avo

salma3

305 | 13

2.18 ГБ

В этой теме нет новых непрочитанных сообщений. Реальные воспоминания международного убийцы / True Memoirs of an International Assassin [боевик, комедия, 2016] WEBRip 720р, Mvo

salma3

627 | 68

3.33 ГБ

В этой теме нет новых непрочитанных сообщений. Реальные воспоминания международного убийцы / True Memoirs of an International Assassin [боевик, комедия, 2016] WEBRip 1080р, Mvo

salma3

887 | 101

4.03 ГБ

В этой теме нет новых непрочитанных сообщений. Уличный боец: Кулак убийцы / Street Fighter: Assassin's Fist [Боевик, триллер, драма, приключение, 2014] BDRip 720p, Avo+Sub

salma3

124 | 4

8.06 ГБ

В этой теме нет новых непрочитанных сообщений. Уличный боец: Кулак убийцы / Street Fighter: Assassin's Fist [Боевик, триллер, драма, приключение, 2014] BDRip 1080p, Avo+Sub

salma3

129 | 18

12.03 ГБ


Начать новую тему Ответить на тему  [ 1 сообщение ] 




Для Мосгорсуда, Роскомнадзора и рекламодателей:: mosgorsud-torrent[собачка]yandex.ru