Торрент файл
скачать торрент магнет ссылка Добавлен: 09 апр 2014, 21:50
Размер: 1.95 ГБ
Сидеров: 114
Личеров: 4
Статус: (salma3)
Автор

СообщениеДобавлено: 09 апр 2014, 21:50 

Не в сети
Зам. Админа
Аватара пользователя
Дата регистрации:
02 дек 2010, 12:39
Спасибо: 12461 / 214
Сообщения: 27968
Год выпуска: 2013
Страна: Франция / ADCB Films, Canal+ [fr], Ciné, France 2 Cinéma...
Жанр: комедия
Продолжительность: 01:22:02
Перевод: Профессиональный (дублированный)
Cубтитры: русский, английский
Оригинальная аудиодорожка: французский

Режиссер: Альбер Дюпонтель / Albert Dupontel

В ролях: Сандрин Киберлэн, Альбер Дюпонтель, Николя Марье, Филипп Юшан, Филипп Дюкен, Кристиан Эк, Жиль Гастон-Дрейфус, Лорэ Кэлами, Иоланда Моро, Мишель Фо...

Описание: Ариана — судья, трудоголик и блондинка с высокими моральными принципами. Никаких мужчин. Никакой семьи. Никаких детей. Только работа, только закон. Кошмарная новость — и конец идиллии — она беременна! «Этого не может быть!» — кричит Ариана, начиная расследование самого невероятного дела в своей жизни!
Распутать его отчаянно мешают собственные принципы и знаменитый вор. Но нарушить закон Ариане все же придется. И лучше бы ей не знать, что же на самом деле произошло!



Качество: BDRip-AVC
Формат: MKV
Видео: 1024x428 (2.40:1), 23.976 fps, MPEG-4 AVC, ~2500 kbps avg, 0.238 bit/pix
Аудио 1: Russian: 48 kHz, Dolby AC3, 6 ch, 448 kbps Const
Аудио 2: French: 48 kHz, Dolby AC3, 6 ch, 448 kbps Const
Формат субтитров: SoftSub (srt)

Дополнительно: Фильм разбит на главы, как на оригинальном Blu-ray диске. Русские субтитры сняты с лицензионного диска DVD5 R5.

Общее
Полное имя : 9.mesyatsev.strogogo.rejima.D.2013.BDRip-AVC_[New-Team]_by_avproh.mkv
Формат : Matroska
Версия формата : Version 4 / Version 2
Размер файла : 1,95 Гбайт
Продолжительность : 1 ч. 22 м.
Общий поток : 3396 Кбит/сек
Дата кодирования : UTC 2014-04-09 16:57:24
Программа кодирования : mkvmerge v6.8.0 ('Theme for Great Cities') 64bit built on Mar 2 2014 21:34:26
Библиотека кодирования : libebml v1.3.0 + libmatroska v1.4.1

Видео
Идентификатор : 1
Формат : AVC
Формат/Информация : Advanced Video Codec
Профиль формата : High@L4.1
Параметр CABAC формата : Да
Параметр ReFrames формата : 8 кадров
Идентификатор кодека : V_MPEG4/ISO/AVC
Продолжительность : 1 ч. 22 м.
Битрейт : 2500 Кбит/сек
Ширина : 1024 пикселя
Высота : 428 пикселей
Соотношение сторон : 2,40:1
Режим частоты кадров : Постоянный
Частота кадров : 23,976 кадра/сек
Цветовое пространство : YUV
Субдискретизация насыщенности : 4:2:0
Битовая глубина : 8 бит
Тип развёртки : Прогрессивная
Бит/(Пиксели*Кадры) : 0.238
Размер потока : 1,39 Гбайт (72%)
Библиотека кодирования : x264 core 138 r2356 a1d3d17
Настройки программы : cabac=1 / ref=8 / deblock=1:-3:-2 / analyse=0x3:0x113 / me=umh / subme=10 / psy=1 / psy_rd=1.00:0.05 / mixed_ref=1 / me_range=32 / chroma_me=1 / trellis=2 / 8x8dct=1 / cqm=0 / deadzone=21,11 / fast_pskip=0 / chroma_qp_offset=-3 / threads=9 / lookahead_threads=1 / sliced_threads=0 / nr=0 / decimate=0 / interlaced=0 / bluray_compat=0 / constrained_intra=0 / bframes=8 / b_pyramid=2 / b_adapt=2 / b_bias=0 / direct=3 / weightb=1 / open_gop=0 / weightp=2 / keyint=240 / keyint_min=24 / scenecut=40 / intra_refresh=0 / rc_lookahead=40 / rc=2pass / mbtree=1 / bitrate=2500 / ratetol=1.0 / qcomp=0.60 / qpmin=0 / qpmax=69 / qpstep=4 / cplxblur=20.0 / qblur=0.5 / ip_ratio=1.40 / aq=1:1.00
Язык : French
Default : Да
Forced : Нет

Аудио #1
Идентификатор : 2
Формат : AC-3
Формат/Информация : Audio Coding 3
Расширение режима : CM (complete main)
Параметр Endianness формата : Big
Идентификатор кодека : A_AC3
Продолжительность : 1 ч. 22 м.
Вид битрейта : Постоянный
Битрейт : 448 Кбит/сек
Каналы : 6 каналов
Расположение каналов : Front: L C R, Side: L R, LFE
Частота : 48,0 КГц
Битовая глубина : 16 бит
Метод сжатия : С потерями
Размер потока : 263 Мбайт (13%)
Язык : Russian
Default : Да
Forced : Нет

Аудио #2
Идентификатор : 3
Формат : AC-3
Формат/Информация : Audio Coding 3
Расширение режима : CM (complete main)
Параметр Endianness формата : Big
Идентификатор кодека : A_AC3
Продолжительность : 1 ч. 22 м.
Вид битрейта : Постоянный
Битрейт : 448 Кбит/сек
Каналы : 6 каналов
Расположение каналов : Front: L C R, Side: L R, LFE
Частота : 48,0 КГц
Битовая глубина : 16 бит
Метод сжатия : С потерями
Размер потока : 263 Мбайт (13%)
Язык : French
Default : Нет
Forced : Нет

Текст #1
Идентификатор : 4
Формат : UTF-8
Идентификатор кодека : S_TEXT/UTF8
Идентификатор кодека/Информация : UTF-8 Plain Text
Язык : Russian
Default : Нет
Forced : Нет

Текст #2
Идентификатор : 5
Формат : UTF-8
Идентификатор кодека : S_TEXT/UTF8
Идентификатор кодека/Информация : UTF-8 Plain Text
Язык : English
Default : Нет
Forced : Нет

Меню
00:00:00.000 : fr:Chapitre 1
00:06:17.168 : fr:Chapitre 2
00:15:21.838 : fr:Chapitre 3
00:20:28.352 : fr:Chapitre 4
00:24:25.547 : fr:Chapitre 5
00:30:11.226 : fr:Chapitre 6
00:39:57.145 : fr:Chapitre 7
00:46:25.366 : fr:Chapitre 8
00:58:19.705 : fr:Chapitre 9
01:05:30.844 : fr:Chapitre 10
01:14:11.530 : fr:Chapitre 11
01:18:04.471 : fr:Chapitre 12









реклама партнёра


Вернуться к началу
 Профиль  
 
   Похожие торренты   Автор   Торрент   Размер 
В этой теме нет новых непрочитанных сообщений. 9 месяцев строгого режима / 9 mois ferme [Комедия, 2013] BDRip, Dub+Sub [лицензия]

Dracon

1402 | 51

1.46 ГБ

В этой теме нет новых непрочитанных сообщений. 9 месяцев строгого режима / 9 mois ferme [Комедия, 2013] BDRip 720p, Dub+Sub [лицензия]

Dracon

104 | 9

3.54 ГБ

В этой теме нет новых непрочитанных сообщений. 9 месяцев строгого режима / 9 mois ferme [Комедия, 2013] DVD5, Dub+Sub [лицензия]

Dracon

23 | 2

4.17 ГБ

В этой теме нет новых непрочитанных сообщений. 9 месяцев строгого режима / 9 mois ferme [Комедия, 2013] BDRemux 1080p, Dub+Sub [лицензия]

Dracon

55 | 11

15.18 ГБ

В этой теме нет новых непрочитанных сообщений. 9 месяцев строгого режима / 9 mois ferme [Комедия, 2013] BDRip 1080p, dub [Чистый звук]

Dracon

1 | 2

5.57 ГБ

В этой теме нет новых непрочитанных сообщений. 9 месяцев строгого режима / 9 mois ferme [Комедия, 2013] BDRip 720p, dub [Чистый звук]

Dracon

559 | 17

3 ГБ

В этой теме нет новых непрочитанных сообщений. 9 месяцев строгого режима / 9 mois ferme [Комедия, 2013] HDRip, dub [Чистый звук] [НТВ+]

Dracon

1120 | 3

1.37 ГБ


Начать новую тему Ответить на тему  [ 1 сообщение ] 




Для Мосгорсуда, Роскомнадзора и рекламодателей:: mosgorsud-torrent[собачка]yandex.ru