Торрент файл
скачать торрент магнет ссылка Добавлен: 09 апр 2014, 21:13
Размер: 1.46 ГБ
Сидеров: 2
Личеров: 3
Статус: (salma3)
Автор

СообщениеДобавлено: 09 апр 2014, 21:13 

Не в сети
Супермодератор
Аватара пользователя
Дата регистрации:
15 фев 2012, 16:44
Возраст: 28
Спасибо: 6594 / 2145
Сообщения: 44279
Война Логана: Связанный честью / Logan's War: Bound by Honor

Год выпуска: 1998
Жанр: боевик, триллер, драма
Режиссер: Майкл Прис / Michael Preece

В ролях: Чак Норрис, Эдди Кибриан, Джо Спано, Джефф Кобер, Брендон Райн Бэрретт, Р. Д. Колл,

Описание:
10 — летний Логан Фэллон обладал обостренным чувством опасности, однако он не смог защитить своих родителей, когда мафия ворвалась в его дом, чтобы убить их. Но он поклялся отомстить.

Забрав Логана к себе, его дядя Джейк Фэллон — бывший рейнджер и чемпион по кик — боксингу, передал племяннику весь свой опыт, сделав из него профессионала, владеющего всеми видами оружия. В течение 15 лет Логан не забывает о своей клятве, и когда чувствует, что готов, возвращается в Чикаго, чтобы рассчитаться по долгам.

Под видом наемного убийцы Логан проникает в самый могущественный преступный синдикат, завоевав доверие Альберта Талгорно — человека, ответственного за смерть его родителей. Теперь Логан мог убить Талгорно в любой момент, но это был не весь его план. Он решает уничтожить синдикат целиком. А Джейку ничего не остается, как тоже вступить в эту смертельную схватку…



Страна: США
Продолжительность: 01:31:02
Перевод: Профессиональный (многоголосый, закадровый)

Файл
Качество: DVDRip [исх. DVD5]
Формат файла: AVI
Видео кодек: XviD
Аудио кодек: AC3
Video: 640x480 (1.33:1), 29.970 fps, XviD build 50 ~2095 kbps avg, 0.23 bit/pixel
Audio: 48 kHz, AC3 Dolby Digital, 2/0 (L,R) ch, ~192 kbps

Время Раздачи 11-00 до 16-00 + 20-00 до 03-00


Downloads\Logan_s_War_1998.DVDRip.avi
Format : AVI
Format/Info : Audio Video Interleave
File size : 1.46 GiB
Duration : 1h 31mn
Overall bit rate : 2 299 Kbps
Writing application : VirtualDubMod 1.5.10.3 | http://www.virtualdub-fr.org || (build 2550/release)
Writing library : VirtualDubMod build 2550/release

Video
ID : 0
Format : MPEG-4 Visual
Format profile : Advanced Simple@L5
Format settings, BVOP : 1
Format settings, QPel : No
Format settings, GMC : No warppoints
Format settings, Matrix : Default (H.263)
Codec ID : XVID
Codec ID/Hint : XviD
Duration : 1h 31mn
Bit rate : 2 095 Kbps
Width : 640 pixels
Height : 480 pixels
Display aspect ratio : 4:3
Frame rate : 29.970 fps
Color space : YUV
Chroma subsampling : 4:2:0
Bit depth : 8 bits
Scan type : Progressive
Compression mode : Lossy
Bits/(Pixel*Frame) : 0.228
Stream size : 1.33 GiB (91%)
Writing library : XviD 1.2.1 (UTC 2008-12-04)

Audio
ID : 1
Format : AC-3
Format/Info : Audio Coding 3
Mode extension : CM (complete main)
Format settings, Endianness : Big
Codec ID : 2000
Duration : 1h 31mn
Bit rate mode : Constant
Bit rate : 192 Kbps
Channel(s) : 2 channels
Channel positions : Front: L R
Sampling rate : 48.0 KHz
Bit depth : 16 bits
Compression mode : Lossy
Stream size : 125 MiB (8%)
Alignment : Split accross interleaves
Interleave, duration : 33 ms (1.00 video frame)
Interleave, preload duration : 500 ms


Релиз от:


_________________
Проголосуй за трекер Открытый торрент трекер - RUS-MEDIA.ORG

Проголосуй Открытый торрент трекер - RUS-MEDIA.ORG



реклама партнёра


Вернуться к началу
 Профиль Отправить личное сообщение  
 
   Похожие торренты   Автор   Торрент   Размер 
В этой теме нет новых непрочитанных сообщений. Логан / Logan [Фантастика, боевик, триллер, драма, 2017] BDRip, Dub [Лицензия]

salma3

179 | 22

2.18 ГБ

В этой теме нет новых непрочитанных сообщений. Логан / Logan [Фантастика, боевик, триллер, драма, 2017] BDRip, Dub [Лицензия]

salma3

424 | 101

1.46 ГБ

В этой теме нет новых непрочитанных сообщений. Логан / Logan [Фантастика, боевик, триллер, драма, 2017] BDRip-AVC, Dub [Лицензия]

salma3

127 | 43

2.46 ГБ

В этой теме нет новых непрочитанных сообщений. Логан / Logan [Фантастика, боевик, триллер, драма, 2017] BDRip-AVC, Dub [iTunes]

salma3

1215 | 164

1.45 ГБ

В этой теме нет новых непрочитанных сообщений. Логан / Logan [Фантастика, боевик, триллер, драма, 2017] UHD BDRemux 2160p, Dub [4K] [Лицензия]

salma3

12 | 19

49.21 ГБ

В этой теме нет новых непрочитанных сообщений. Логан / Logan [Фантастика, боевик, триллер, драма, 2017] WEB-DL 720p, Dub [чистый звук]

salma3

171 | 66

4.5 ГБ

В этой теме нет новых непрочитанных сообщений. Честь и ярость 2: Враждебный захват / Rage and Honor II [боевик, триллер, драма, криминал, 1993] DVDRip, Mvo [Первый канал]

salma3

81 | 25

1.46 ГБ


Начать новую тему Ответить на тему  [ 1 сообщение ] 




Для Мосгорсуда, Роскомнадзора и рекламодателей:: mosgorsud-torrent[собачка]yandex.ru