Торрент файл
скачать торрент магнет ссылка Добавлен: 09 апр 2014, 20:05
Размер: 1.46 ГБ
Сидеров: 1402
Личеров: 51
Статус: (salma3)
Автор

СообщениеДобавлено: 09 апр 2014, 20:05 

Не в сети
Зам. Админа
Аватара пользователя
Дата регистрации:
02 дек 2010, 12:39
Спасибо: 12458 / 214
Сообщения: 27968
Год выпуска: 2013
Страна: Франция / ADCB Films, Canal+ [fr], Ciné, France 2 Cinéma...
Жанр: комедия
Продолжительность: 01:22:02
Перевод: Профессиональный (дублированный)
Cубтитры: русский, английский
Оригинальная аудиодорожка: нет

Режиссер: Альбер Дюпонтель / Albert Dupontel

В ролях: Сандрин Киберлэн, Альбер Дюпонтель, Николя Марье, Филипп Юшан, Филипп Дюкен, Кристиан Эк, Жиль Гастон-Дрейфус, Лорэ Кэлами, Иоланда Моро, Мишель Фо...

Описание: Ариана — судья, трудоголик и блондинка с высокими моральными принципами. Никаких мужчин. Никакой семьи. Никаких детей. Только работа, только закон. Кошмарная новость — и конец идиллии — она беременна! «Этого не может быть!» — кричит Ариана, начиная расследование самого невероятного дела в своей жизни!
Распутать его отчаянно мешают собственные принципы и знаменитый вор. Но нарушить закон Ариане все же придется. И лучше бы ей не знать, что же на самом деле произошло!



Качество: BDRip
Формат: AVI
Видео: 720x304 (2.35:1), 23.976 fps, XViD, ~2085 kbps avg, 0.397 bit/pix
Аудио: Russian: 48 kHz, Dolby AC3, 6 ch, 448 kbps Const
Формат субтитров: SoftSub (srt)

Дополнительно: Русские субтитры сняты с лицензионного диска DVD5 R5. Все релизы, выставленные до этого, к лицензии отношения не имеют.

Общее
Полное имя : 9.mesyatsev.strogogo.rejima.2013.D.BDRip_[New-Team]_by_avproh.avi
Формат : AVI
Формат/Информация : Audio Video Interleave
Размер файла : 1,46 Гбайт
Продолжительность : 1 ч. 22 м.
Общий поток : 2542 Кбит/сек
Программа кодирования : VirtualDubModRus 1.5.10.2 (build 2542/release)
Библиотека кодирования : VirtualDubMod build 2542/release

Видео
Идентификатор : 0
Формат : MPEG-4 Visual
Профиль формата : Advanced Simple@L5
Параметр BVOP формата : 1
Параметр QPel формата : Нет
Параметр GMC формата : Без точки перехода
Параметр матрицы формата : Выборочная
Идентификатор кодека : XVID
Идентификатор кодека/Подсказка : XviD
Продолжительность : 1 ч. 22 м.
Битрейт : 2085 Кбит/сек
Ширина : 720 пикселей
Высота : 304 пикселя
Соотношение сторон : 2,35:1
Частота кадров : 23,976 кадра/сек
Цветовое пространство : YUV
Субдискретизация насыщенности : 4:2:0
Битовая глубина : 8 бит
Тип развёртки : Прогрессивная
Метод сжатия : С потерями
Бит/(Пиксели*Кадры) : 0.397
Размер потока : 1,19 Гбайт (82%)
Библиотека кодирования : XviD 73

Аудио
Идентификатор : 1
Формат : AC-3
Формат/Информация : Audio Coding 3
Расширение режима : CM (complete main)
Параметр Endianness формата : Big
Идентификатор кодека : 2000
Продолжительность : 1 ч. 21 м.
Вид битрейта : Постоянный
Битрейт : 448 Кбит/сек
Каналы : 6 каналов
Расположение каналов : Front: L C R, Side: L R, LFE
Частота : 48,0 КГц
Битовая глубина : 16 бит
Метод сжатия : С потерями
Размер потока : 263 Мбайт (18%)
Выравнивание : Разделение по промежуткам
Продолжительность промежутка : 42 мс. (1,00 видеокадр)
Время предзагрузки промежутка : 500 мс.






реклама партнёра


Вернуться к началу
 Профиль  
 
   Похожие торренты   Автор   Торрент   Размер 
В этой теме нет новых непрочитанных сообщений. 9 месяцев строгого режима / 9 mois ferme [Комедия, 2013] BDRip-AVC, Dub+Sub [лицензия]

Dracon

114 | 4

1.95 ГБ

В этой теме нет новых непрочитанных сообщений. 9 месяцев строгого режима / 9 mois ferme [Комедия, 2013] BDRip 720p, Dub+Sub [лицензия]

Dracon

104 | 9

3.54 ГБ

В этой теме нет новых непрочитанных сообщений. 9 месяцев строгого режима / 9 mois ferme [Комедия, 2013] DVD5, Dub+Sub [лицензия]

Dracon

23 | 2

4.17 ГБ

В этой теме нет новых непрочитанных сообщений. 9 месяцев строгого режима / 9 mois ferme [Комедия, 2013] BDRemux 1080p, Dub+Sub [лицензия]

Dracon

55 | 11

15.18 ГБ

В этой теме нет новых непрочитанных сообщений. 9 месяцев строгого режима / 9 mois ferme [Комедия, 2013] BDRip 720p, dub [Чистый звук]

Dracon

559 | 17

3 ГБ

В этой теме нет новых непрочитанных сообщений. 9 месяцев строгого режима / 9 mois ferme [Комедия, 2013] BDRip 1080p, dub [Чистый звук]

Dracon

1 | 2

5.57 ГБ

В этой теме нет новых непрочитанных сообщений. 9 месяцев строгого режима / 9 mois ferme [Комедия, 2013] HDRip, dub [Чистый звук] [НТВ+]

Dracon

1120 | 3

1.37 ГБ


Начать новую тему Ответить на тему  [ 1 сообщение ] 




Для Мосгорсуда, Роскомнадзора и рекламодателей:: mosgorsud-torrent[собачка]yandex.ru