Торрент файл
скачать торрент магнет ссылка Добавлен: 09 апр 2014, 09:56
Размер: 1.46 ГБ
Сидеров: 1967
Личеров: 154
Статус: (salma3)
Автор

СообщениеДобавлено: 09 апр 2014, 09:56 

Не в сети
Зам. Админа
Аватара пользователя
Дата регистрации:
02 дек 2010, 12:39
Спасибо: 12577 / 214
Сообщения: 28057
Год выпуска: 2013
Страна: США / Truth Entertainment (II), Voltage Pictures
Жанр: драма, биография, история
Продолжительность: 01:56:57

Перевод: Профессиональный (дублированный)
Cубтитры: Russian, English, English (SDH), English (SDH-COLORED)
Оригинальная аудиодорожка: английский

Режиссер: Жан-Марк Валле / Jean-Marc Vallée

В ролях: Мэттью МакКонахи, Джаред Лето, Дженнифер Гарнер, Дэнис О’Хэйр, Стив Зан, Майкл О’Нил, Даллас Робертс, Гриффин Данн, Кевин О. Ранкин, Донна ДюПлантье...

Роли дублировали: Дмитрий Поляновский, Сергей Смирнов, Василиса Воронина, Александр Носков, Владимир Рыбальченко...

Описание: Реальная история Рона Вудруфа, техасского электрика, у которого в 1985 году обнаружили СПИД. Врачи отвели ему всего 30 дней, но он не пожелал смириться со смертным приговором и сумел продлить свою жизнь, принимая нетрадиционные лекарства, а затем наладил подпольный бизнес по продаже их другим больным.



Качество: BDRip
Формат: AVI
Видео: 720x304 (2.35:1), 23.976 fps, XViD, ~1390 kbps avg, Бит/(Пиксели*Кадры) = 0.265
Аудио: Russian: 48 kHz, Dolby AC3, 6 ch, 384 kbps Const | Дублированный |

Общее
Полное имя : Dallasskiy.Klub.pokupateley.2013.D.BDRip_[New-Team]_by_avproh.avi
Формат : AVI
Формат/Информация : Audio Video Interleave
Размер файла : 1,46 Гбайт
Продолжительность : 1 ч. 56 м.
Общий поток : 1783 Кбит/сек
Программа кодирования : VirtualDubModRus 1.5.10.2 (build 2542/release)
Библиотека кодирования : VirtualDubMod build 2542/release

Видео
Идентификатор : 0
Формат : MPEG-4 Visual
Профиль формата : Advanced Simple@L5
Параметр BVOP формата : 1
Параметр QPel формата : Нет
Параметр GMC формата : Без точки перехода
Параметр матрицы формата : Выборочная
Идентификатор кодека : XVID
Идентификатор кодека/Подсказка : XviD
Продолжительность : 1 ч. 56 м.
Битрейт : 1390 Кбит/сек
Ширина : 720 пикселей
Высота : 304 пикселя
Соотношение сторон : 2,35:1
Частота кадров : 23,976 кадра/сек
Цветовое пространство : YUV
Субдискретизация насыщенности : 4:2:0
Битовая глубина : 8 бит
Тип развёртки : Прогрессивная
Метод сжатия : С потерями
Бит/(Пиксели*Кадры) : 0.265
Размер потока : 1,14 Гбайт (78%)
Библиотека кодирования : XviD 73

Аудио
Идентификатор : 1
Формат : AC-3
Формат/Информация : Audio Coding 3
Расширение режима : CM (complete main)
Параметр Endianness формата : Big
Идентификатор кодека : 2000
Продолжительность : 1 ч. 56 м.
Вид битрейта : Постоянный
Битрейт : 384 Кбит/сек
Каналы : 6 каналов
Расположение каналов : Front: L C R, Side: L R, LFE
Частота : 48,0 КГц
Битовая глубина : 16 бит
Метод сжатия : С потерями
Размер потока : 321 Мбайт (22%)
Выравнивание : Разделение по промежуткам
Продолжительность промежутка : 42 мс. (1,00 видеокадр)
Время предзагрузки промежутка : 500 мс.






реклама партнёра


Вернуться к началу
 Профиль  
 
   Похожие торренты   Автор   Торрент   Размер 
В этой теме нет новых непрочитанных сообщений. Зип и Зап. Клуб стеклянных шариков  / Zipi y Zape y el club de la canica (Оскар Сантос Гомес) [Комедия, Приключения, Семейный, 2013] BDRip 720p, dub [чистый звук]

Dracon

183 | 6

4.56 ГБ

В этой теме нет новых непрочитанных сообщений. Клуб бунтарей / The Riot Club (Лоне Шерфиг) [триллер, драма, 2014] BDRip 720p, dvo

Dracon

4 | 3

5.98 ГБ

В этой теме нет новых непрочитанных сообщений. Тропы / Tracks [драма, приключения, биография, 2013] BDRip 720p, Mvo+Sub [лицензия]

Dracon

90 | 3

6.14 ГБ

В этой теме нет новых непрочитанных сообщений. Тропы / Tracks [драма, приключения, биография, 2013] BDRip 1080p, Mvo+Sub [лицензия]

Dracon

113 | 8

11 ГБ

В этой теме нет новых непрочитанных сообщений. Мечты сбываются! / One Chance [драма, комедия, мелодрама, биография, 2013] BDRip 720p, Mvo [Лицензия]

Dracon

12 | 5

4.7 ГБ

В этой теме нет новых непрочитанных сообщений. Лето в феврале / Summer in February [Драма, Мелодрама, Биография, 2013] BDRip 720p, Dub [Лицензия]

Dracon

26 | 7

5.75 ГБ

В этой теме нет новых непрочитанных сообщений. Лето в феврале / Summer in February [Драма, Мелодрама, Биография, 2013] BDRip 1080p, Dub [лицензия]+sub

Dracon

21 | 3

8.61 ГБ


Начать новую тему Ответить на тему  [ 1 сообщение ] 




Для Мосгорсуда, Роскомнадзора и рекламодателей:: mosgorsud-torrent[собачка]yandex.ru