Торрент файл
скачать торрент магнет ссылка Добавлен: 09 апр 2014, 09:52
Размер: 2.18 ГБ
Сидеров: 663
Личеров: 16
Статус: (salma3)
Автор

СообщениеДобавлено: 09 апр 2014, 09:52 

Не в сети
Зам. Админа
Аватара пользователя
Дата регистрации:
02 дек 2010, 12:39
Спасибо: 12461 / 214
Сообщения: 27968
Год выпуска: 2013
Страна: США / Truth Entertainment (II), Voltage Pictures
Жанр: драма, биография, история
Продолжительность: 01:56:57

Перевод: Профессиональный (дублированный)
Cубтитры: Russian, English, English (SDH), English (SDH-COLORED)
Оригинальная аудиодорожка: английский

Режиссер: Жан-Марк Валле / Jean-Marc Vallée

В ролях: Мэттью МакКонахи, Джаред Лето, Дженнифер Гарнер, Дэнис О’Хэйр, Стив Зан, Майкл О’Нил, Даллас Робертс, Гриффин Данн, Кевин О. Ранкин, Донна ДюПлантье...

Роли дублировали: Дмитрий Поляновский, Сергей Смирнов, Василиса Воронина, Александр Носков, Владимир Рыбальченко...

Описание: Реальная история Рона Вудруфа, техасского электрика, у которого в 1985 году обнаружили СПИД. Врачи отвели ему всего 30 дней, но он не пожелал смириться со смертным приговором и сумел продлить свою жизнь, принимая нетрадиционные лекарства, а затем наладил подпольный бизнес по продаже их другим больным.



Качество: BDRip-AVC
Формат: MKV
Видео: 1024x426 (2.40:1), 23.976 fps, MPEG-4 AVC, ~1842 kbps avg, Бит/(Пиксели*Кадры) = 0.176
Аудио 1: Russian: 48 kHz, Dolby AC3, 6 ch, 384 kbps Const
Аудио 2: English: 48 kHz, Dolby AC3, 6 ch, 448 kbps Const
Формат субтитров: SoftSub (srt)

Дополнительно: Фильм разбит на главы, как на оригинальном Blu-ray диске.

Общее
Полное имя : Dallasskiy.Klub.pokupateley.2013.D.BDRip-AVC_[New-Team]_by_avproh.mkv
Формат : Matroska
Версия формата : Version 4 / Version 2
Размер файла : 2,18 Гбайт
Продолжительность : 1 ч. 56 м.
Общий поток : 2673 Кбит/сек
Дата кодирования : UTC 2014-04-09 04:46:04
Программа кодирования : mkvmerge v6.8.0 ('Theme for Great Cities') 64bit built on Mar 2 2014 21:34:26
Библиотека кодирования : libebml v1.3.0 + libmatroska v1.4.1

Видео
Идентификатор : 1
Формат : AVC
Формат/Информация : Advanced Video Codec
Профиль формата : High@L4.1
Параметр CABAC формата : Да
Параметр ReFrames формата : 8 кадров
Идентификатор кодека : V_MPEG4/ISO/AVC
Продолжительность : 1 ч. 56 м.
Битрейт : 1842 Кбит/сек
Ширина : 1024 пикселя
Высота : 426 пикселей
Соотношение сторон : 2,40:1
Режим частоты кадров : Постоянный
Частота кадров : 23,976 кадра/сек
Цветовое пространство : YUV
Субдискретизация насыщенности : 4:2:0
Битовая глубина : 8 бит
Тип развёртки : Прогрессивная
Бит/(Пиксели*Кадры) : 0.176
Размер потока : 1,46 Гбайт (67%)
Библиотека кодирования : x264 core 138 r2356 a1d3d17
Настройки программы : cabac=1 / ref=8 / deblock=1:-3:-2 / analyse=0x3:0x113 / me=umh / subme=10 / psy=1 / psy_rd=1.00:0.05 / mixed_ref=1 / me_range=32 / chroma_me=1 / trellis=2 / 8x8dct=1 / cqm=0 / deadzone=21,11 / fast_pskip=0 / chroma_qp_offset=-3 / threads=9 / lookahead_threads=1 / sliced_threads=0 / nr=0 / decimate=0 / interlaced=0 / bluray_compat=0 / constrained_intra=0 / bframes=8 / b_pyramid=2 / b_adapt=2 / b_bias=0 / direct=3 / weightb=1 / open_gop=0 / weightp=2 / keyint=240 / keyint_min=24 / scenecut=40 / intra_refresh=0 / rc_lookahead=40 / rc=2pass / mbtree=1 / bitrate=1842 / ratetol=1.0 / qcomp=0.60 / qpmin=0 / qpmax=69 / qpstep=4 / cplxblur=20.0 / qblur=0.5 / ip_ratio=1.40 / aq=1:1.00
Язык : English
Default : Да
Forced : Нет

Аудио #1
Идентификатор : 2
Формат : AC-3
Формат/Информация : Audio Coding 3
Расширение режима : CM (complete main)
Параметр Endianness формата : Big
Идентификатор кодека : A_AC3
Продолжительность : 1 ч. 56 м.
Вид битрейта : Постоянный
Битрейт : 384 Кбит/сек
Каналы : 6 каналов
Расположение каналов : Front: L C R, Side: L R, LFE
Частота : 48,0 КГц
Битовая глубина : 16 бит
Метод сжатия : С потерями
Размер потока : 321 Мбайт (14%)
Язык : Russian
Default : Да
Forced : Нет

Аудио #2
Идентификатор : 3
Формат : AC-3
Формат/Информация : Audio Coding 3
Расширение режима : CM (complete main)
Параметр Endianness формата : Big
Идентификатор кодека : A_AC3
Продолжительность : 1 ч. 56 м.
Вид битрейта : Постоянный
Битрейт : 448 Кбит/сек
Каналы : 6 каналов
Расположение каналов : Front: L C R, Side: L R, LFE
Частота : 48,0 КГц
Битовая глубина : 16 бит
Метод сжатия : С потерями
Размер потока : 375 Мбайт (17%)
Язык : English
Default : Нет
Forced : Нет

Текст #1
Идентификатор : 4
Формат : UTF-8
Идентификатор кодека : S_TEXT/UTF8
Идентификатор кодека/Информация : UTF-8 Plain Text
Заголовок : Full
Язык : Russian
Default : Нет
Forced : Нет

Текст #2
Идентификатор : 5
Формат : UTF-8
Идентификатор кодека : S_TEXT/UTF8
Идентификатор кодека/Информация : UTF-8 Plain Text
Заголовок : Full
Язык : English
Default : Нет
Forced : Нет

Меню
00:00:00.000 : en:00:00:00.000
00:06:20.672 : en:00:06:20.672
00:11:52.879 : en:00:11:52.879
00:18:41.579 : en:00:18:41.579
00:24:55.703 : en:00:24:55.703
00:29:44.282 : en:00:29:44.282
00:35:15.697 : en:00:35:15.697
00:41:33.282 : en:00:41:33.282
00:46:32.873 : en:00:46:32.873
00:51:49.023 : en:00:51:49.023
00:55:37.834 : en:00:55:37.834
01:01:25.974 : en:01:01:25.974
01:07:16.783 : en:01:07:16.783
01:12:37.645 : en:01:12:37.645
01:19:55.249 : en:01:19:55.249
01:28:25.550 : en:01:28:25.550
01:36:56.644 : en:01:36:56.644
01:43:06.639 : en:01:43:06.639
01:47:59.473 : en:01:47:59.473
01:52:12.851 : en:01:52:12.851






реклама партнёра


Вернуться к началу
 Профиль  
 
   Похожие торренты   Автор   Торрент   Размер 
В этой теме нет новых непрочитанных сообщений. Далласский клуб покупателей / Dallas Buyers Club [Драма, биография, 2013] BDRip, Dub+Sub [лицензия]

Dracon

1967 | 154

1.46 ГБ

В этой теме нет новых непрочитанных сообщений. Далласский клуб покупателей / Dallas Buyers Club [Драма, биография, 2013] BDRip 720p, Dub+Sub [лицензия]

Dracon

410 | 10

4.32 ГБ

В этой теме нет новых непрочитанных сообщений. Далласский клуб покупателей / Dallas Buyers Club [Драма, биография, 2013] DVD5, Dub+Sub [лицензия]

Dracon

25 | 3

4.37 ГБ

В этой теме нет новых непрочитанных сообщений. Далласский клуб покупателей / Dallas Buyers Club [Драма, биография, 2013] BDRemux 1080p, Dub+Sub [лицензия]

Dracon

79 | 7

30.97 ГБ

В этой теме нет новых непрочитанных сообщений. Далласский клуб покупателей / Dallas Buyers Club [Драма, биография, 2013] BDRip 720p, Mvo+Sub

Dracon

295 | 11

6.9 ГБ

В этой теме нет новых непрочитанных сообщений. Далласский клуб покупателей / Dallas Buyers Club [Драма, биография, 2013] BDRip 1080p, Mvo+Sub

Dracon

253 | 6

11.24 ГБ

В этой теме нет новых непрочитанных сообщений. Далласский клуб покупателей / Dallas Buyers Club [Драма, биография, 2013] HDRip, Mvo

Dracon

545 | 16

2.05 ГБ


Начать новую тему Ответить на тему  [ 1 сообщение ] 




Для Мосгорсуда, Роскомнадзора и рекламодателей:: mosgorsud-torrent[собачка]yandex.ru