Торрент файл
скачать торрент магнет ссылка Добавлен: 08 апр 2014, 22:53
Размер: 1.47 ГБ
Сидеров: 138
Личеров: 12
Статус: (salma3)
Автор

СообщениеДобавлено: 08 апр 2014, 22:53 

В сети
Супермодератор
Аватара пользователя
Дата регистрации:
15 фев 2012, 16:44
Возраст: 27
Спасибо: 5121 / 2089
Сообщения: 17281
Жестокие игры 3 / Cruel Intentions 3

Год выхода: 2004
Жанр: Драма, триллер, комедия
Режиссёр: Скотт Зил

В ролях: Керр Смит, Кристина Анапау, Натан Уэзерингтон, Мелисса Ивонн Льюис, Натали Рэмси, Том Паркер, Майкл Пембертон, Тара Кэрролл, Чарли Уэбер, Алекс Доннелли, Уильям Грегори Ли, Аарон МакФерсон, Элизабет МакДоналд

О фильме:
Их любовным интригам нет конца… Их коварный план соблазнить и бросить двух доверчивых студенток не увенчался особым успехом, и тогда Джейсон и Патрик — два самых распущенных студента Колледжа Престридж — обратили свой взгляд на «приз», более интригующий и заманчивый — Касси Мертей, женщину холодную и расчетливую, которая приоткрывает им новый мир наслаждения и боли.



Страна: США
Продолжительность: 01:25:08
Перевод: Профессиональный [многоголосый]
Оригинальная аудио-дорожка: Английская

Файл
Качество: DVDRip
Формат файла: AVI
Видео кодек: XviD
Аудио кодек: AC3
Видео: XviD, 704x400 (16:9), 1693 Кбит/с, 23,976 кадр/с
Аудио #1: Русский, Dolby AC3, 48000 Гц, 384 Кбит/с, 6 каналов (5.1)
Аудио #2: Английский, Dolby AC3, 48000 Гц, 384 Кбит/с, 6 каналов (5.1)

Автор рипа - ivandubskoj



Общее
Полное имя : Zhestokie.igri.3.2004.DUAL.DVDRip.avi
Формат : AVI
Формат/Информация : Audio Video Interleave
Размер файла : 1,47 Гбайт
Продолжительность : 1 ч. 25 м.
Общий поток : 2471 Кбит/сек
Название фильма : Жестокие игры 3 / Cruel Intentions 3 (2004) DVDRip
Жанр : Драма, мелодрама, триллер, эротика
Дата записи : 08.04.2014
Программа кодирования : VirtualDubMod 1.5.10.3 (build 2550/release)
Библиотека кодирования : VirtualDubMod build 2550/release
Правообладатель : rip by ivandubskoj

Видео
Идентификатор : 0
Формат : MPEG-4 Visual
Профиль формата : Advanced Simple@L5
Параметр BVOP формата : 2
Параметр QPel формата : Нет
Параметр GMC формата : Без точки перехода
Параметр матрицы формата : Default (MPEG)
Идентификатор кодека : XVID
Идентификатор кодека/Подсказка : XviD
Продолжительность : 1 ч. 25 м.
Битрейт : 1692 Кбит/сек
Ширина : 704 пикселя
Высота : 400 пикселей
Соотношение сторон : 16:9
Частота кадров : 23,976 кадра/сек
Цветовое пространство : YUV
Субдискретизация насыщенности : 4:2:0
Битовая глубина : 8 бит
Тип развёртки : Прогрессивная
Метод сжатия : С потерями
Бит/(Пиксели*Кадры) : 0.251
Размер потока : 1,01 Гбайт (68%)
Библиотека кодирования : XviD 73

Аудио #1
Идентификатор : 1
Формат : AC-3
Формат/Информация : Audio Coding 3
Расширение режима : CM (complete main)
Параметр Endianness формата : Big
Идентификатор кодека : 2000
Продолжительность : 1 ч. 25 м.
Вид битрейта : Постоянный
Битрейт : 384 Кбит/сек
Каналы : 6 каналов
Расположение каналов : Front: L C R, Side: L R, LFE
Частота : 48,0 КГц
Битовая глубина : 16 бит
Метод сжатия : С потерями
Размер потока : 234 Мбайт (16%)
Выравнивание : Разделение по промежуткам
Продолжительность промежутка : 64 мс. (1,53 видеокадра)
Время предзагрузки промежутка : 500 мс.
Заголовок : Russian (MVO)

Аудио #2
Идентификатор : 2
Формат : AC-3
Формат/Информация : Audio Coding 3
Расширение режима : CM (complete main)
Параметр Endianness формата : Big
Идентификатор кодека : 2000
Продолжительность : 1 ч. 25 м.
Вид битрейта : Постоянный
Битрейт : 384 Кбит/сек
Каналы : 6 каналов
Расположение каналов : Front: L C R, Side: L R, LFE
Частота : 48,0 КГц
Битовая глубина : 16 бит
Метод сжатия : С потерями
Размер потока : 234 Мбайт (16%)
Выравнивание : Разделение по промежуткам
Продолжительность промежутка : 64 мс. (1,53 видеокадра)
Время предзагрузки промежутка : 500 мс.
Заголовок : English (Original)



_________________



реклама партнёра


Вернуться к началу
 Профиль Отправить личное сообщение  
 
   Похожие торренты   Автор   Торрент   Размер 
В этой теме нет новых непрочитанных сообщений. Жестокие игры 3 / Cruel Intentions 3 [Драма, триллер, комедия, 2004] DVD5, Mvo+Sub

salma3

12 | 2

3.87 ГБ

В этой теме нет новых непрочитанных сообщений. Жестокие игры / Cruel Intentions [триллер, драма, мелодрама, 1999] BDRip, Mvo [Видеосервис]

salma3

60 | 10

1.46 ГБ

В этой теме нет новых непрочитанных сообщений. Игры джентльменов / The Ladykillers [триллер, комедия, криминал, 2004] WEB-DLRip-AVC, Dub

salma3

211 | 23

1.45 ГБ

В этой теме нет новых непрочитанных сообщений. Жестокие люди / Fierce People (Гриффин Данн / Griffin Dunne) [2005г., драма, триллер, экранизация, WEB-DLRip-AVC] DUB+DVO

Alfredovich

27 | 2

2.7 ГБ

В этой теме нет новых непрочитанных сообщений. Правила игры (Холостяцкие игры) / Bachelor Games [ужасы, боевик, триллер, комедия, приключения, 2016] HDRip, Avo

salma3

199 | 9

1.28 ГБ

В этой теме нет новых непрочитанных сообщений. Жестокое Завещание / Cruel Will [ужасы, триллер, 2013] WEB-DLRip, Dvo

salma3

246 | 11

1.37 ГБ

В этой теме нет новых непрочитанных сообщений. Мертвые, как я / Dead Like Me [S01-02] [Комедия, Фантастика, Триллер, драма, 2003-2004] DVDRip, Dub [ТВ-3]

salma3

15 | 9

11.49 ГБ


Начать новую тему Ответить на тему  [ 1 сообщение ] 




Для Мосгорсуда, Роскомнадзора и рекламодателей:: mosgorsud-torrent[собачка]yandex.ru