Торрент файл
скачать торрент магнет ссылка Добавлен: 06 апр 2014, 23:10
Размер: 1.37 ГБ
Сидеров: 11
Личеров: 3
Статус: (salma3)
Автор

СообщениеДобавлено: 06 апр 2014, 23:10 

Не в сети
Супермодератор
Аватара пользователя
Дата регистрации:
15 фев 2012, 16:44
Возраст: 27
Спасибо: 5143 / 2090
Сообщения: 17478
Гемоглобин / Bleeders

Год выпуска: 1997
Жанр: ужасы
Режиссер: Питер Сватек

В ролях: Рутгер Хауэр/Rutger Hauer/, Рой Дюпуа/Roy Dupuis/, Кристин Леман/Kristin Lehman/, Джеки Берроуз/Jackie Burroughs/, Джон Данн-Хилл/John Dunn-Hill/, Джоэнна Нойес/Joanna Noyes

Описание:
Начало этой истории было положено более трех веков назад, когда юная красавица Эва Ван Даам сделала своим любовником собственного брата-близнеца и положила начало кровосмешению.
Изгнанные из родной Голландии, обреченные на вымирание из-за необъяснимой мутации, ужасные монстры находят пристанище на заброшенном острове. Уже в наше время разгневанные и напуганные жители острова пытались «стереть с лица земли» страшное семейство, загнав их в подземные катакомбы. Но они выжили, и теперь ими движет жажда крови и мести…



Страна: Канада, США
Продолжительность:01:28:46
Перевод: Профессиональный [двухголосый, закадровый] [АСГ Видео Фильм по заказу Рен-тв]

Файл
Качество: DVDRip
Формат файла: AVI
Видео кодек: XviD
Аудио кодек: AC3
Видео: 704x528 (1.33:1), 25 fps, XviD build 47 ~1745 kbps avg, 0.19 bit/pixel
Аудио 1: Русский: 48 kHz, AC3 Dolby Digital, 2 ch, ~224.00 kbps avg [двухголосый]
Аудио 2: Английский: 48 kHz, AC3 Dolby Digital, 2 ch, ~224.00 kbps avg [Оригинал]


General
Complete name : E:\Фильмы\Гемоглобин.1997DVDRip.DVO+Original.[tfile.ru].avi
Format : AVI
Format/Info : Audio Video Interleave
File size : 1.37 GiB
Duration : 1h 28mn
Overall bit rate : 2 209 Kbps
Writing application : VirtualDubMod 1.5.10.2 (build 2540/release)
Writing library : VirtualDubMod build 2540/release

Video
ID : 0
Format : MPEG-4 Visual
Format profile : Advanced Simple@L5
Format settings, BVOP : 1
Format settings, QPel : No
Format settings, GMC : No warppoints
Format settings, Matrix : Default (MPEG)
Codec ID : XVID
Codec ID/Hint : XviD
Duration : 1h 28mn
Bit rate : 1 747 Kbps
Width : 704 pixels
Height : 528 pixels
Display aspect ratio : 4:3
Frame rate : 25.000 fps
Color space : YUV
Chroma subsampling : 4:2:0
Bit depth : 8 bits
Scan type : Progressive
Compression mode : Lossy
Bits/(Pixel*Frame) : 0.188
Stream size : 1.08 GiB (79%)
Writing library : XviD 1.2.0.dev47 (UTC 2006-11-01)

Audio #1
ID : 1
Format : AC-3
Format/Info : Audio Coding 3
Mode extension : CM (complete main)
Codec ID : 2000
Duration : 1h 28mn
Bit rate mode : Constant
Bit rate : 224 Kbps
Channel(s) : 2 channels
Channel positions : Front: L R
Sampling rate : 48.0 KHz
Bit depth : 16 bits
Compression mode : Lossy
Delay relative to video : 730ms
Stream size : 142 MiB (10%)
Alignment : Split accross interleaves
Interleave, duration : 40 ms (1.00 video frame)
Interleave, preload duration : 500 ms

Audio #2
ID : 2
Format : AC-3
Format/Info : Audio Coding 3
Mode extension : CM (complete main)
Codec ID : 2000
Duration : 1h 28mn
Bit rate mode : Constant
Bit rate : 224 Kbps
Channel(s) : 2 channels
Channel positions : Front: L R
Sampling rate : 48.0 KHz
Bit depth : 16 bits
Compression mode : Lossy
Delay relative to video : 730ms
Stream size : 142 MiB (10%)
Alignment : Split accross interleaves
Interleave, duration : 40 ms (1.00 video frame)
Interleave, preload duration : 500 ms












_________________



реклама партнёра


Вернуться к началу
 Профиль Отправить личное сообщение  
 
   Похожие торренты   Автор   Торрент   Размер 
В этой теме нет новых непрочитанных сообщений. Грузовики / Trucks [Ужасы, Фантастика, 1997] DVDRip, Mvo

salma3

1 | 2

1.49 ГБ

В этой теме нет новых непрочитанных сообщений. Снеговик / Jack Frost [Ужасы, комедия, 1997] DVDRip, Avo

salma3

16 | 4

1.48 ГБ

В этой теме нет новых непрочитанных сообщений. Секретный бункер / Ravager [Фантастика, ужасы, 1997] DVDRip, Mvo+Dvo

salma3

43 | 5

1.46 ГБ

В этой теме нет новых непрочитанных сообщений. Восковая маска / M.D.C. - Maschera di cera [Ужасы, 1997] DVDRip-AVC, Avo

salma3

48 | 3

1.47 ГБ

В этой теме нет новых непрочитанных сообщений. Генозавр 2: Смертельные инстинкты / Отродье / Размножители / Breeders / Deadly Instincts [Фантастика, ужасы, 1997] DVDRip Avo

salma3

1 | 1

1.45 ГБ

В этой теме нет новых непрочитанных сообщений. Анаконда / Anaconda [ужасы, боевик, триллер, 1997] BDRip, Mvo

salma3

93 | 14

1.46 ГБ

В этой теме нет новых непрочитанных сообщений. Сквозь горизонт / Event Horizon [ужасы, фантастика, 1997] HDRip, Mvo

salma3

82 | 7

1.45 ГБ


Начать новую тему Ответить на тему  [ 1 сообщение ] 




Для Мосгорсуда, Роскомнадзора и рекламодателей:: mosgorsud-torrent[собачка]yandex.ru