Торрент файл
скачать торрент магнет ссылка Добавлен: 06 апр 2014, 22:59
Размер: 701.71 МБ
Сидеров: 36
Личеров: 5
Статус: (salma3)
Автор

СообщениеДобавлено: 06 апр 2014, 22:59 

В сети
Супермодератор
Аватара пользователя
Дата регистрации:
15 фев 2012, 16:44
Возраст: 28
Спасибо: 6563 / 2129
Сообщения: 43563
Турбофорсаж / Autobahn Racer

Год выхода: 2004
Жанр: Боевик, комедия, приключения
Режиссёр: Майкл Койш

В ролях: Люк Уилкинс, Александра Нельдель, Генриетта Рихтер-Роль, Нильс-Бруно Шмидт, Мануэль Кортез

О фильме:
Компанию сорвиголов на навороченных машинах объединяет одна страсть: гонки без ограничений скорости. Парням регулярно «обламывает кайф» полиция, принимая их за угонщиков дорогих спортивных автомобилей. А все попытки поймать воров приводят к одному и тому же результату: груда покорёженных полицейских машин и «растворившиеся в воздухе» преступники. Инспектор полиции Карл получает задание внедриться в тусовку гонщиков. Он становится в ней своим и даже добивается взаимности от красотки Ники, пилотирующей быстрый, как молния «БМВ М3». Но угонщики наносят новый удар, похитив «Феррари», «Мазерати» и «Ламборгини» - «миллион долларов на колёсах». Повсюду полицейские. Ни о каких гонках не может быть и речи. И тогда Карл предлагает план: чтобы беспрепятственно гонять по трассе, они сами должны поймать угонщиков…



Страна: Германия, Люксембург
Продолжительность: 01:24:14
Перевод: Профессиональный [многоголосый]

Файл
Качество: DVDRip
Формат файла: AVI
Видео кодек: XviD
Аудио кодек: MP3
Видео: XviD, 640x272 (2.35:1), 25 кадр/с, 1027 Кбит/с
Звук: Русский, MP3, 48000 Гц, 128 Кбит/с, 2 канала (Стерео)


Автор рипа - ivandubskoj


Общее
Полное имя : Turboforsazh.2004.DVDRip.700MB.avi
Формат : AVI
Формат/Информация : Audio Video Interleave
Размер файла : 702 Мбайт
Продолжительность : 1 ч. 24 м.
Общий поток : 1164 Кбит/сек
Название фильма : Турбофорсаж / Autobahnraser (2004) DVDRip
Жанр : Боевик, комедия, приключения
Дата записи : 06.04.2014
Программа кодирования : VirtualDubMod 1.5.10.3 (build 2550/release)
Библиотека кодирования : VirtualDubMod build 2550/release
Правообладатель : rip by ivandubskoj

Видео
Идентификатор : 0
Формат : MPEG-4 Visual
Профиль формата : Advanced Simple@L5
Параметр BVOP формата : 1
Параметр QPel формата : Нет
Параметр GMC формата : Без точки перехода
Параметр матрицы формата : Default (MPEG)
Идентификатор кодека : XVID
Идентификатор кодека/Подсказка : XviD
Продолжительность : 1 ч. 24 м.
Битрейт : 1027 Кбит/сек
Ширина : 640 пикселей
Высота : 272 пикселя
Соотношение сторон : 2,35:1
Частота кадров : 25,000 кадров/сек
Цветовое пространство : YUV
Субдискретизация насыщенности : 4:2:0
Битовая глубина : 8 бит
Тип развёртки : Прогрессивная
Метод сжатия : С потерями
Бит/(Пиксели*Кадры) : 0.236
Размер потока : 619 Мбайт (88%)
Библиотека кодирования : XviD 73

Аудио
Идентификатор : 1
Формат : MPEG Audio
Версия формата : Version 1
Профиль формата : Layer 3
Идентификатор кодека : 55
Идентификатор кодека/Подсказка : MP3
Продолжительность : 1 ч. 24 м.
Вид битрейта : Постоянный
Битрейт : 128 Кбит/сек
Каналы : 2 канала
Частота : 48,0 КГц
Метод сжатия : С потерями
Размер потока : 77,1 Мбайт (11%)
Выравнивание : Соединение по промежуткам
Продолжительность промежутка : 40 мс. (1,00 видеокадр)
Время предзагрузки промежутка : 504 мс.
Заголовок : Russian (MVO)
Библиотека кодирования : LAME3.99r
Настройки программы : -m s -V 4 -q 2 -lowpass 17 -b 128



_________________
Проголосуй за трекер Открытый торрент трекер - RUS-MEDIA.ORG

Проголосуй Открытый торрент трекер - RUS-MEDIA.ORG



реклама партнёра


Вернуться к началу
 Профиль Отправить личное сообщение  
 
   Похожие торренты   Автор   Торрент   Размер 
В этой теме нет новых непрочитанных сообщений. Спиди Гонщик / Speed Racer [Фантастика, боевик, семейный, 2008] BDRemux 1080p, Dub

salma3

7 | 4

17.85 ГБ

В этой теме нет новых непрочитанных сообщений. Микибо и я / Mickybo and Me [Драма, комедия, мелодрама, приключения, 2004] DVDRip, Mvo [НТВ+]

salma3

8 | 3

1.46 ГБ

В этой теме нет новых непрочитанных сообщений. Спиди Гонщик / Гоночные преследователи / Speed Racer / Race Chasers [семейный, спорт, боевик, 2008] BDRip, Dub

salma3

64 | 11

2.18 ГБ

В этой теме нет новых непрочитанных сообщений. Ленни - чудо собака! / Lenny the Wonder Dog [Комедия, приключения, семейный, 2004] DVDRip, Mvo

salma3

59 | 9

770.34 МБ

В этой теме нет новых непрочитанных сообщений. Человек-паук 2 / Spider-Man 2 [фантастика, боевик, приключения, 2004] WEB-DL 1080p, Dub [Open Matte]

salma3

41 | 17

13.8 ГБ

В этой теме нет новых непрочитанных сообщений. Выстрел / Dishoom [боевик, комедия, криминал, приключения, 2016] DVDRip, Mvo

salma3

264 | 74

2.06 ГБ

В этой теме нет новых непрочитанных сообщений. Сердце тигра / Tiger Heart [боевик, комедия, приключения, 1996] DVDRip, Dvo+Avo

salma3

65 | 14

1.45 ГБ


Начать новую тему Ответить на тему  [ 1 сообщение ] 




Для Мосгорсуда, Роскомнадзора и рекламодателей:: mosgorsud-torrent[собачка]yandex.ru