Торрент файл
скачать торрент магнет ссылка Добавлен: 05 апр 2014, 19:20
Размер: 1.46 ГБ
Сидеров: 107
Личеров: 11
Статус: (salma3)
Автор

СообщениеДобавлено: 05 апр 2014, 19:20 

Не в сети
Супермодератор
Аватара пользователя
Дата регистрации:
15 фев 2012, 16:44
Возраст: 28
Спасибо: 6571 / 2137
Сообщения: 43777
Турбофорсаж / Autobahn Racer

Год выхода: 2004
Жанр: Боевик, комедия, приключения
Режиссёр: Майкл Койш

В ролях: Люк Уилкинс, Александра Нельдель, Генриетта Рихтер-Роль, Нильс-Бруно Шмидт, Мануэль Кортез

О фильме:
Компанию сорвиголов на навороченных машинах объединяет одна страсть: гонки без ограничений скорости. Парням регулярно «обламывает кайф» полиция, принимая их за угонщиков дорогих спортивных автомобилей. А все попытки поймать воров приводят к одному и тому же результату: груда покорёженных полицейских машин и «растворившиеся в воздухе» преступники. Инспектор полиции Карл получает задание внедриться в тусовку гонщиков. Он становится в ней своим и даже добивается взаимности от красотки Ники, пилотирующей быстрый, как молния «БМВ М3». Но угонщики наносят новый удар, похитив «Феррари», «Мазерати» и «Ламборгини» - «миллион долларов на колёсах». Повсюду полицейские. Ни о каких гонках не может быть и речи. И тогда Карл предлагает план: чтобы беспрепятственно гонять по трассе, они сами должны поймать угонщиков…



Страна: Германия, Люксембург
Продолжительность: 01:24:14
Перевод: Профессиональный [многоголосый]


Файл
Качество: DVDRip
Формат файла: AVI
Видео кодек: XviD
Аудио кодек: AC3
Видео: XviD, 720x304 (2.37:1), 25 кадр/с, 2030 Кбит/с
Звук: Русский, Dolby AC3, 48000 Гц, 448 Кбит/с, 6 каналов (5.1)


Автор рипа - ivandubskoj


Общее
Полное имя : Turboforsaj.2004.DVDRip.avi
Формат : AVI
Формат/Информация : Audio Video Interleave
Размер файла : 1,46 Гбайт
Продолжительность : 1 ч. 24 м.
Общий поток : 2485 Кбит/сек
Название фильма : Турбофорсаж / Autobahnraser (2004) DVDRip
Жанр : Боевик, комедия, приключения
Дата записи : 05.04.2014
Программа кодирования : VirtualDubMod 1.5.10.3 (build 2550/release)
Библиотека кодирования : VirtualDubMod build 2550/release
Правообладатель : rip by ivandubskoj

Видео
Идентификатор : 0
Формат : MPEG-4 Visual
Профиль формата : Advanced Simple@L5
Параметр BVOP формата : 1
Параметр QPel формата : Нет
Параметр GMC формата : Без точки перехода
Параметр матрицы формата : Default (MPEG)
Идентификатор кодека : XVID
Идентификатор кодека/Подсказка : XviD
Продолжительность : 1 ч. 24 м.
Битрейт : 2029 Кбит/сек
Ширина : 720 пикселей
Высота : 304 пикселя
Соотношение сторон : 2,35:1
Частота кадров : 25,000 кадров/сек
Цветовое пространство : YUV
Субдискретизация насыщенности : 4:2:0
Битовая глубина : 8 бит
Тип развёртки : Прогрессивная
Метод сжатия : С потерями
Бит/(Пиксели*Кадры) : 0.371
Размер потока : 1,19 Гбайт (82%)
Библиотека кодирования : XviD 73

Аудио
Идентификатор : 1
Формат : AC-3
Формат/Информация : Audio Coding 3
Расширение режима : CM (complete main)
Параметр Endianness формата : Big
Идентификатор кодека : 2000
Продолжительность : 1 ч. 24 м.
Вид битрейта : Постоянный
Битрейт : 448 Кбит/сек
Каналы : 6 каналов
Расположение каналов : Front: L C R, Side: L R, LFE
Частота : 48,0 КГц
Битовая глубина : 16 бит
Метод сжатия : С потерями
Размер потока : 270 Мбайт (18%)
Выравнивание : Разделение по промежуткам
Продолжительность промежутка : 64 мс. (1,60 видеокадра)
Время предзагрузки промежутка : 500 мс.
Заголовок : Russian (MVO)


_________________
Проголосуй за трекер Открытый торрент трекер - RUS-MEDIA.ORG

Проголосуй Открытый торрент трекер - RUS-MEDIA.ORG



реклама партнёра


Вернуться к началу
 Профиль Отправить личное сообщение  
 
   Похожие торренты   Автор   Торрент   Размер 
В этой теме нет новых непрочитанных сообщений. Спиди Гонщик / Speed Racer [Фантастика, боевик, семейный, 2008] BDRemux 1080p, Dub

salma3

7 | 4

17.85 ГБ

В этой теме нет новых непрочитанных сообщений. Микибо и я / Mickybo and Me [Драма, комедия, мелодрама, приключения, 2004] DVDRip, Mvo [НТВ+]

salma3

8 | 3

1.46 ГБ

В этой теме нет новых непрочитанных сообщений. Спиди Гонщик / Гоночные преследователи / Speed Racer / Race Chasers [семейный, спорт, боевик, 2008] BDRip, Dub

salma3

64 | 11

2.18 ГБ

В этой теме нет новых непрочитанных сообщений. Ленни - чудо собака! / Lenny the Wonder Dog [Комедия, приключения, семейный, 2004] DVDRip, Mvo

salma3

59 | 9

770.34 МБ

В этой теме нет новых непрочитанных сообщений. Человек-паук 2 / Spider-Man 2 [фантастика, боевик, приключения, 2004] WEB-DL 1080p, Dub [Open Matte]

salma3

41 | 17

13.8 ГБ

В этой теме нет новых непрочитанных сообщений. Выстрел / Dishoom [боевик, комедия, криминал, приключения, 2016] DVDRip, Mvo

salma3

264 | 74

2.06 ГБ

В этой теме нет новых непрочитанных сообщений. Сердце тигра / Tiger Heart [боевик, комедия, приключения, 1996] DVDRip, Dvo+Avo

salma3

65 | 14

1.45 ГБ


Начать новую тему Ответить на тему  [ 1 сообщение ] 




Для Мосгорсуда, Роскомнадзора и рекламодателей:: mosgorsud-torrent[собачка]yandex.ru