Торрент файл
скачать торрент магнет ссылка Добавлен: 03 апр 2014, 21:49
Размер: 1.55 ГБ
Сидеров: 0
Личеров: 4
Статус: (salma3)
Автор

СообщениеДобавлено: 03 апр 2014, 21:49 

Не в сети
Супермодератор
Аватара пользователя
Дата регистрации:
15 фев 2012, 16:44
Возраст: 27
Спасибо: 5143 / 2090
Сообщения: 17514
В смертельной опасности / On Deadly Ground

Год выпуска: 1994
Жанр: боевик, триллер, приключения
Режиссер: Стивен Сигал / Steven Seagal

В ролях: Стивен Сигал, Майкл Кейн, Джоан Чен, Джон С. МакГинли, Р.Ли Эрми, Шари Шаттак, Билли Боб Торнтон, Ричард Хэмилтон.

Описание: Форрест Тафт — это человек, который всегда выбирает только одну сторону. Тафт — специалист по борьбе с пожарами нефтяных скважин, но ему приходится вступать в еще более горячую битву, когда он сталкивается с Майклом Дженнингсом — хозяином нефтяной компании, на одной из буровых которой произошла авария, и нефть выливается в океан.
Но нажива для таких людей превыше всего. И тогда Тафт дает им понять: если они причинят вред земле, которую он любит, они — в смертельной опасности.



Страна: США
Продолжительность: 01:37:35
Перевод: Профессиональный [двухголосый, закадровый] [ОРТ]

Файл
Качество: DVDRip-AVC
Формат файла: MKV
Видео кодек: H.264
Аудио кодек: AC3
Видео: 704x416@982x416 (2.35:1), 25 fps, AVC(x264), High@L3.1 ~2075 kbps, 0,285 bit/pix
Аудио: Русский: 48 kHz, AC3 Dolby Digital, 2/0 (L,R) ch, ~192 kbps


General
Unique ID : 180132566665591900722506946171034497961 (0x8784453997F966FCB6403E4AE64973A9)
Complete name : E:\Фильмы\В смертельной опасности.1994.DVDRip-AVC.DVO.[tfile.ru].mkv
Format : Matroska
File size : 1.55 GiB
Duration : 1h 37mn
Overall bit rate : 2 270 Kbps
Encoded date : UTC 2014-04-03 13:41:20
Writing application : mkvmerge v4.2.0 ('No Talking') сборка от Jul 28 2010 18:38:23
Writing library : libebml v1.0.0 + libmatroska v1.0.0

Video
ID : 1
Format : AVC
Format/Info : Advanced Video Codec
Format profile : High@L3.1
Format settings, CABAC : Yes
Format settings, ReFrames : 9 frames
Muxing mode : Header stripping
Codec ID : V_MPEG4/ISO/AVC
Duration : 1h 37mn
Bit rate : 2 077 Kbps
Width : 704 pixels
Height : 416 pixels
Display aspect ratio : 2.35:1
Frame rate : 25.000 fps
Color space : YUV
Chroma subsampling : 4:2:0
Bit depth : 8 bits
Scan type : Progressive
Bits/(Pixel*Frame) : 0.284
Stream size : 1.39 GiB (90%)
Title : (1994) В смертельной опасности- релиз подготовил -Джон Коннор- для rutracker.org
Writing library : x264 core 79
Encoding settings : cabac=1 / ref=9 / deblock=1:-2:-1 / analyse=0x3:0x113 / me=umh / subme=9 / psy=1 / psy_rd=1.0:0.0 / mixed_ref=0 / me_range=32 / chroma_me=1 / trellis=2 / 8x8dct=1 / cqm=0 / deadzone=21,11 / chroma_qp_offset=-2 / threads=1 / nr=0 / decimate=1 / mbaff=0 / constrained_intra=0 / bframes=6 / b_pyramid=0 / b_adapt=2 / b_bias=0 / direct=1 / wpredb=1 / wpredp=2 / keyint=250 / keyint_min=25 / scenecut=40 / rc_lookahead=40 / rc=2pass / mbtree=1 / bitrate=2077 / ratetol=1.0 / qcomp=0.60 / qpmin=10 / qpmax=51 / qpstep=4 / cplxblur=20.0 / qblur=0.5 / ip_ratio=1.40 / aq=1:1.00
Language : English
Color primaries : BT.601-6 525, BT.1358 525, BT.1700 NTSC, SMPTE 170M
Transfer characteristics : BT.709-5, BT.1361
Matrix coefficients : BT.601-6 525, BT.1358 525, BT.1700 NTSC, SMPTE 170M

Audio
ID : 2
Format : AC-3
Format/Info : Audio Coding 3
Mode extension : CM (complete main)
Muxing mode : Header stripping
Codec ID : A_AC3
Duration : 1h 37mn
Bit rate mode : Constant
Bit rate : 192 Kbps
Channel(s) : 2 channels
Channel positions : Front: L R
Sampling rate : 48.0 KHz
Bit depth : 16 bits
Compression mode : Lossy
Stream size : 134 MiB (8%)


_________________



реклама партнёра


Вернуться к началу
 Профиль Отправить личное сообщение  
 
   Похожие торренты   Автор   Торрент   Размер 
В этой теме нет новых непрочитанных сообщений. Смертоносная мишень / Deadly target [Боевик, 1994] DVDRip, Dvo

salma3

24 | 3

1.37 ГБ

В этой теме нет новых непрочитанных сообщений. Смертные грехи / Deadly Sins [детектив, триллер, 1994] VHSRip, Mvo

salma3

8 | 2

753.76 МБ

В этой теме нет новых непрочитанных сообщений. Смертельная игра / Deadly Game [боевик, триллер, комедия, криминал, семейный, 1998] DVDRip, Mvo+Dvo [Рен ТВ]

salma3

1 | 3

1.47 ГБ

В этой теме нет новых непрочитанных сообщений. Меркурий в опасности / Mercury Rising [боевик, триллер, драма, криминал, 1998] BDRip, Dub+2Avo+Sub

salma3

34 | 5

1.46 ГБ

В этой теме нет новых непрочитанных сообщений. Фортуна войны / Fortunes of War [боевик, приключения, 1994] DVDRip, Mvo

salma3

18 | 2

1.46 ГБ

В этой теме нет новых непрочитанных сообщений. Опасная земля / Dangerous Ground [Триллер, драма, криминал, 1997] DVDRip, Mvo [НТВ+]

salma3

6 | 5

1.37 ГБ

В этой теме нет новых непрочитанных сообщений. Смертельные соперники / Deadly Rivals [боевик, 1993] DVDRip, Dvo

salma3

8 | 6

744 МБ


Начать новую тему Ответить на тему  [ 1 сообщение ] 




Для Мосгорсуда, Роскомнадзора и рекламодателей:: mosgorsud-torrent[собачка]yandex.ru