Торрент файл
скачать торрент магнет ссылка Добавлен: 02 апр 2014, 20:35
Размер: 1.5 ГБ
Сидеров: 57
Личеров: 4
Статус: (salma3)
Автор

СообщениеДобавлено: 02 апр 2014, 20:35 

Не в сети
Супермодератор
Аватара пользователя
Дата регистрации:
15 фев 2012, 16:44
Возраст: 27
Спасибо: 6151 / 2122
Сообщения: 31636
Клод в помощь / La strategie de la poussette

Год выпуска: 2012
Жанр: комедия
Режиссер: Клеман Мишель / Clément Michel

В ролях: Рафаэль Персонас, Шарлотта Ле Бон, Жером Коммандёр, Камелия Джордана, Жюли Ферье, Франсуа Берлеан, Франсуа Роллин, Клеман Мишель, Балтазар Риззо, Энн Шаррье...

Описание: Томас безответственен, и потому его бросает любимая девушка. Он настолько безответственен, что только год спустя понимает, насколько она ему дорога, но уже не может ничего исправить. И тут у него на руках оказывается младенец… Томас придумывает хитроумный план — он вернет свою девушку, сыграв роль ответственного «папочки»…



Страна: Франция / Studio Canal, TF1, Ciné...
Продолжительность: 01:29:39
Перевод: Профессиональный (многоголосый закадровый)

Файл
Качество: HDRip
Формат файла: AVI
Видео кодек: XviD
Аудио кодек: AC3
Видео: 720x304 (2.35:1), 24.000 fps, XviD ~ 2009 kbps avg, 0.383 bit/pixel
Аудио: 48 kHz, Dolby AC3, 6 ch, 384 kbps, русский

Общее
Полное имя : Klod.v.pomosh.2012.P.HDRip_[New-Team]_by_avproh.avi
Формат : AVI
Формат/Информация : Audio Video Interleave
Размер файла : 1,50 Гбайт
Продолжительность : 1 ч. 29 м.
Общий поток : 2403 Кбит/сек
Программа кодирования : VirtualDubModRus 1.5.10.2 (build 2542/release)
Библиотека кодирования : VirtualDubMod build 2542/release

Видео
Идентификатор : 0
Формат : MPEG-4 Visual
Профиль формата : Advanced Simple@L5
Параметр BVOP формата : 1
Параметр QPel формата : Нет
Параметр GMC формата : Без точки перехода
Параметр матрицы формата : Выборочная
Идентификатор кодека : XVID
Идентификатор кодека/Подсказка : XviD
Продолжительность : 1 ч. 29 м.
Битрейт : 2009 Кбит/сек
Ширина : 720 пикселей
Высота : 304 пикселя
Соотношение сторон : 2,35:1
Частота кадров : 24,000 кадра/сек
Цветовое пространство : YUV
Субдискретизация насыщенности : 4:2:0
Битовая глубина : 8 бит
Тип развёртки : Прогрессивная
Метод сжатия : С потерями
Бит/(Пиксели*Кадры) : 0.383
Размер потока : 1,26 Гбайт (84%)
Библиотека кодирования : XviD 73

Аудио
Идентификатор : 1
Формат : AC-3
Формат/Информация : Audio Coding 3
Расширение режима : CM (complete main)
Параметр Endianness формата : Big
Идентификатор кодека : 2000
Продолжительность : 1 ч. 29 м.
Вид битрейта : Постоянный
Битрейт : 384 Кбит/сек
Каналы : 6 каналов
Расположение каналов : Front: L C R, Side: L R, LFE
Частота : 48,0 КГц
Битовая глубина : 16 бит
Метод сжатия : С потерями
Размер потока : 246 Мбайт (16%)
Выравнивание : Разделение по промежуткам
Продолжительность промежутка : 42 мс. (1,00 видеокадр)
Время предзагрузки промежутка : 500 мс.


Раздача от:


_________________
Проголосуй за трекер Открытый торрент трекер - RUS-MEDIA.ORG

Проголосуй Открытый торрент трекер - RUS-MEDIA.ORG



реклама партнёра


Вернуться к началу
 Профиль Отправить личное сообщение  
 
   Похожие торренты   Автор   Торрент   Размер 
В этой теме нет новых непрочитанных сообщений. Бог в помощь / Счастливого пути / Yi lu shun feng [Драма, криминал, комедия, 2016] ВDRip 720p, Avo

salma3

103 | 55

5.96 ГБ

В этой теме нет новых непрочитанных сообщений. Скорая помощь / Ambulance Girl (Кэти Бэйтс / Kathy Bates) [2005г., комедия, драма, HDTVRip] MVO

Alfredovich

3 | 2

1.37 ГБ

В этой теме нет новых непрочитанных сообщений. Чип и Дейл спешат на помощь / Chip 'n' Dale Rescue Rangers [S01-03] [мультфильм, комедия, детектив, 1989-1990] WEBDL 1080p, Dub

salma3

108 | 76

59.51 ГБ

В этой теме нет новых непрочитанных сообщений. Жан-Клод Ван Джонсон / Jean-Claude Van Johnson [01х00 из 05] [комедия, 2016] WEBRip, Dvo [NEON Studio]

salma3

322 | 26

379.02 МБ

В этой теме нет новых непрочитанных сообщений. Пощечина / La gifle (Клод Пиното / Claude Pinoteau) [1974г., Франция, Италия, драма, мелодрама, комедия, BDRip-AVC] DVO + MVO + Sub

Alfredovich

2 | 2

2.18 ГБ

В этой теме нет новых непрочитанных сообщений. А вот и она / And So It Goes [драма, мелодрама, комедия, 2014] HDRip, Dub [лицензия]

Dracon

1048 | 25

1.46 ГБ

В этой теме нет новых непрочитанных сообщений. Смешанные / Blended [комедия, 2014] HDRip, Dub [лицензия]

Dracon

310 | 7

2.16 ГБ


Начать новую тему Ответить на тему  [ 1 сообщение ] 




Для Мосгорсуда, Роскомнадзора и рекламодателей:: mosgorsud-torrent[собачка]yandex.ru