Торрент файл
скачать торрент магнет ссылка Добавлен: 02 апр 2014, 20:35
Размер: 1.5 ГБ
Сидеров: 57
Личеров: 4
Статус: (salma3)
Автор

СообщениеДобавлено: 02 апр 2014, 20:35 

Не в сети
Супермодератор
Аватара пользователя
Дата регистрации:
15 фев 2012, 16:44
Возраст: 27
Спасибо: 5139 / 2090
Сообщения: 17432
Клод в помощь / La strategie de la poussette

Год выпуска: 2012
Жанр: комедия
Режиссер: Клеман Мишель / Clément Michel

В ролях: Рафаэль Персонас, Шарлотта Ле Бон, Жером Коммандёр, Камелия Джордана, Жюли Ферье, Франсуа Берлеан, Франсуа Роллин, Клеман Мишель, Балтазар Риззо, Энн Шаррье...

Описание: Томас безответственен, и потому его бросает любимая девушка. Он настолько безответственен, что только год спустя понимает, насколько она ему дорога, но уже не может ничего исправить. И тут у него на руках оказывается младенец… Томас придумывает хитроумный план — он вернет свою девушку, сыграв роль ответственного «папочки»…



Страна: Франция / Studio Canal, TF1, Ciné...
Продолжительность: 01:29:39
Перевод: Профессиональный (многоголосый закадровый)

Файл
Качество: HDRip
Формат файла: AVI
Видео кодек: XviD
Аудио кодек: AC3
Видео: 720x304 (2.35:1), 24.000 fps, XviD ~ 2009 kbps avg, 0.383 bit/pixel
Аудио: 48 kHz, Dolby AC3, 6 ch, 384 kbps, русский

Общее
Полное имя : Klod.v.pomosh.2012.P.HDRip_[New-Team]_by_avproh.avi
Формат : AVI
Формат/Информация : Audio Video Interleave
Размер файла : 1,50 Гбайт
Продолжительность : 1 ч. 29 м.
Общий поток : 2403 Кбит/сек
Программа кодирования : VirtualDubModRus 1.5.10.2 (build 2542/release)
Библиотека кодирования : VirtualDubMod build 2542/release

Видео
Идентификатор : 0
Формат : MPEG-4 Visual
Профиль формата : Advanced Simple@L5
Параметр BVOP формата : 1
Параметр QPel формата : Нет
Параметр GMC формата : Без точки перехода
Параметр матрицы формата : Выборочная
Идентификатор кодека : XVID
Идентификатор кодека/Подсказка : XviD
Продолжительность : 1 ч. 29 м.
Битрейт : 2009 Кбит/сек
Ширина : 720 пикселей
Высота : 304 пикселя
Соотношение сторон : 2,35:1
Частота кадров : 24,000 кадра/сек
Цветовое пространство : YUV
Субдискретизация насыщенности : 4:2:0
Битовая глубина : 8 бит
Тип развёртки : Прогрессивная
Метод сжатия : С потерями
Бит/(Пиксели*Кадры) : 0.383
Размер потока : 1,26 Гбайт (84%)
Библиотека кодирования : XviD 73

Аудио
Идентификатор : 1
Формат : AC-3
Формат/Информация : Audio Coding 3
Расширение режима : CM (complete main)
Параметр Endianness формата : Big
Идентификатор кодека : 2000
Продолжительность : 1 ч. 29 м.
Вид битрейта : Постоянный
Битрейт : 384 Кбит/сек
Каналы : 6 каналов
Расположение каналов : Front: L C R, Side: L R, LFE
Частота : 48,0 КГц
Битовая глубина : 16 бит
Метод сжатия : С потерями
Размер потока : 246 Мбайт (16%)
Выравнивание : Разделение по промежуткам
Продолжительность промежутка : 42 мс. (1,00 видеокадр)
Время предзагрузки промежутка : 500 мс.


Раздача от:


_________________



реклама партнёра


Вернуться к началу
 Профиль Отправить личное сообщение  
 
   Похожие торренты   Автор   Торрент   Размер 
В этой теме нет новых непрочитанных сообщений. Клод в помощь / La strategie de la poussette [комедия, 2012] DVD5, Mvo [лицензия]

Dracon

3 | 3

4.02 ГБ

В этой теме нет новых непрочитанных сообщений. Клод в помощь / La strategie de la poussette [комедия, 2012] BDRip 1080p, Mvo [Лицензия]

Dracon

0 | 7

6.8 ГБ

В этой теме нет новых непрочитанных сообщений. Клод в помощь / La strategie de la poussette [комедия, 2012] BDRip 720p, Mvo [лицензия]

salma3

0 | 10

4.61 ГБ

В этой теме нет новых непрочитанных сообщений. Клод в помощь / La stratеgie de la poussette [комедия, 2012] HDRip, Mvo

salma3

37 | 4

1.37 ГБ

В этой теме нет новых непрочитанных сообщений. Полетта / Paulette [комедия, 2012] HDRip, Dub [Лицензия]

Dracon

403 | 17

1.46 ГБ

В этой теме нет новых непрочитанных сообщений. Не входить, мы не одеты / Do Not Disturb [Комедия, 2012] HDRip, Mvo [Лицензия]

salma3

744 | 23

1.46 ГБ

В этой теме нет новых непрочитанных сообщений. Команда Мечты / Les seigneurs [Комедия, спорт, 2012] HDRip-AVC, Dub [Лицензия]

Dracon

64 | 3

1.45 ГБ


Начать новую тему Ответить на тему  [ 1 сообщение ] 




Для Мосгорсуда, Роскомнадзора и рекламодателей:: mosgorsud-torrent[собачка]yandex.ru