Торрент файл
скачать торрент магнет ссылка Добавлен: 02 апр 2014, 09:30
Размер: 1.45 ГБ
Сидеров: 38
Личеров: 2
Статус: (salma3)
Автор

СообщениеДобавлено: 02 апр 2014, 09:30 

Не в сети
Супермодератор
Аватара пользователя
Дата регистрации:
15 фев 2012, 16:44
Возраст: 27
Спасибо: 5139 / 2089
Сообщения: 17411
Облако / Die Wolke

Год выпуска: 2006
Жанр: фантастика, триллер, драма
Режиссер: Грегор Шнитцлер

В ролях: Паула Каленберг, Франц Динда, Ханс-Лаурин Бейерлинг, Карина Визе, Дженнифер Ульрих, Клэр Олькерс, Том Влашиха, Карл Кранцковски, Жозефина Меркац, Никита Кулен

Описание:
«Каждый день может стать последним...»


Маленький немецкий городок объят паникой — на расположенной неподалёку атомной электростанции произошла авария, и всю округу накрывает радиоактивное облако…



Страна: Германия
Продолжительность: 01:42:30
Перевод: Профессиональный (двухголосый) [cтудия «Пифагор»]

Файл
Качество: HDRip-AVC
Формат файла: MKV
Видео кодек: H.264
Аудио кодек: AC3
Видео: 960x408 (2.35:1), 24.000 fps, AVC (H.264), High@L4.1 ~1902kbps, 0.203 bit/pixel
Аудио: 48 kHz, AC3 Dolby Digital, 2 ch, ~128 kbps avg

Format : Matroska
Format version : Version 2
File size : 1.45 GiB
Duration : 1h 42mn
Overall bit rate : 2 031 Kbps
Encoded date : UTC 2014-04-01 17:36:39
Writing application : mkvmerge v6.1.0 ('Old Devil') built on Mar 4 2013 09:10:42
Writing library : libebml v1.3.0 + libmatroska v1.4.0

Video
ID : 1
Format : AVC
Format/Info : Advanced Video Codec
Format profile : High@L4.1
Format settings, CABAC : Yes
Format settings, ReFrames : 12 frames
Codec ID : V_MPEG4/ISO/AVC
Duration : 1h 42mn
Bit rate : 1 902 Kbps
Width : 960 pixels
Height : 408 pixels
Display aspect ratio : 2.35:1
Frame rate mode : Constant
Frame rate : 23.976 fps
Color space : YUV
Chroma subsampling : 4:2:0
Bit depth : 8 bits
Scan type : Progressive
Bits/(Pixel*Frame) : 0.203
Stream size : 1.33 GiB (92%)
Writing library : x264 core 130 r2273 b3065e6
Encoding settings : cabac=1 / ref=12 / deblock=1:-3:-3 / analyse=0x3:0x133 / me=umh / subme=11 / psy=1 / psy_rd=1.00:0.20 / mixed_ref=1 / me_range=32 / chroma_me=1 / trellis=2 / 8x8dct=1 / cqm=0 / deadzone=21,11 / fast_pskip=0 / chroma_qp_offset=-6 / threads=16 / lookahead_threads=4 / sliced_threads=0 / slices=4 / nr=0 / decimate=1 / interlaced=0 / bluray_compat=0 / constrained_intra=0 / bframes=10 / b_pyramid=2 / b_adapt=2 / b_bias=0 / direct=3 / weightb=1 / open_gop=0 / weightp=2 / keyint=240 / keyint_min=23 / scenecut=40 / intra_refresh=0 / rc_lookahead=50 / rc=2pass / mbtree=1 / bitrate=1902 / ratetol=1.0 / qcomp=0.60 / qpmin=10 / qpmax=51 / qpstep=4 / cplxblur=20.0 / qblur=0.5 / ip_ratio=1.40 / aq=1:1.50
Default : Yes
Forced : No

Audio
ID : 2
Format : AC-3
Format/Info : Audio Coding 3
Mode extension : CM (complete main)
Format settings, Endianness : Big
Codec ID : A_AC3
Duration : 1h 42mn
Bit rate mode : Constant
Bit rate : 128 Kbps
Channel(s) : 2 channels
Channel positions : Front: L R
Sampling rate : 48.0 KHz
Bit depth : 16 bits
Compression mode : Lossy
Stream size : 93.8 MiB (6%)
Default : Yes
Forced : No











_________________



реклама партнёра


Вернуться к началу
 Профиль Отправить личное сообщение  
 
   Похожие торренты   Автор   Торрент   Размер 
В этой теме нет новых непрочитанных сообщений. Облако / Die Wolke [Фантастика, триллер, драма, 2006] BDRip 720p, Dvo

salma3

35 | 5

3.43 ГБ

В этой теме нет новых непрочитанных сообщений. Облако 9 / Cloud 9 [драма, мелодрама, спорт, 2014] WEB-DL 720p, Dub

Dracon

113 | 5

2.8 ГБ

В этой теме нет новых непрочитанных сообщений. Для Андромеды / A for Andromeda [фантастика, триллер, драма, 2006] DVDRip, Dvo

salma3

119 | 9

1.42 ГБ

В этой теме нет новых непрочитанных сообщений. Дрейф / Adrift [ужасы, триллер, драма, 2006] HDRip, Dub [Лицензия]

salma3

76 | 8

1.45 ГБ

В этой теме нет новых непрочитанных сообщений. Наемники / Mercenary for Justice [Боевик, триллер, драма, 2006] HDRip, Mvo

salma3

0 | 2

1.46 ГБ

В этой теме нет новых непрочитанных сообщений. Одинокие сердца / Lonely Hearts [триллер, мелодрама, драма, криминал, 2006] HDRip, Dvo

salma3

134 | 9

1.45 ГБ

В этой теме нет новых непрочитанных сообщений. Незабываемое / Unforgettable [фантастика, триллер, драма, 1996] HDRip, Avo

salma3

37 | 1

1.46 ГБ


Начать новую тему Ответить на тему  [ 1 сообщение ] 




Для Мосгорсуда, Роскомнадзора и рекламодателей:: mosgorsud-torrent[собачка]yandex.ru