Торрент файл
скачать торрент магнет ссылка Добавлен: 02 апр 2014, 01:45
Размер: 1.46 ГБ
Сидеров: 2
Личеров: 2
Статус: (salma3)
Автор

СообщениеДобавлено: 02 апр 2014, 01:45 

В сети
Супермодератор
Аватара пользователя
Дата регистрации:
15 фев 2012, 16:44
Возраст: 27
Спасибо: 5148 / 2090
Сообщения: 17553
Тарзан на Манхэттене / Tarzan in Manhattan

Год выпуска: 1989
Жанр: боевик, приключения
Режиссер: Майкл Шульц / Michael Schultz

В ролях: Джо Лара, Ким Кросби, Джеймс Медина, Ян-Майкл Винсент, Джо Сенека, Тони Кертис, Питер Шеряйко, Роберт Бенедетти, Джим Дуган, Оливер Мюрхед

Описание:
Спокойная жизнь в африканских джунглях для Тарзана окончилась с появление группы охотников под командованием мистера Брайтмора, который не только убил его мать шимпанзе Калу, но и похитил его подругу шимпанзе Читу. Охотники не оставили никаких следов, кроме оброненной коробки спичек с адресом: Нью-Йорк, 5-я улица, дом 22. Подпись «Черный зверь». Тарзан решается на опрометчивый шаг — броситься вдогонку за похитителями и убийцами в неизведанный мир под названием Нью-Йорк.



Страна: США
Продолжительность: 01:33:55
Перевод: Профессиональный (многоголосый закадровый)

Файл
Качество: DVDRip [исх. DVD5]
Формат файла: AVI
Видео кодек: XviD
Аудио кодек: AC3
Video: 640x480 (1.33:1), 25 fps, XviD build 50 ~2027 kbps avg, 0.26 bit/pixel
Audio: 48 kHz, AC3 Dolby Digital, 2/0 (L,R) ch, ~192 kbps

Время Раздачи 11-00 до 16-00 + 20-00 до 03-00


Downloads\Tarzan_in_Manhattan_1989.DVDRip.avi
Format : AVI
Format/Info : Audio Video Interleave
File size : 1.46 GiB
Duration : 1h 33mn
Overall bit rate : 2 230 Kbps
Writing application : VirtualDubMod 1.5.10.3 | www.virtualdub-fr.org || (build 2550/release)
Writing library : VirtualDubMod build 2550/release

Video
ID : 0
Format : MPEG-4 Visual
Format profile : Advanced Simple@L5
Format settings, BVOP : 2
Format settings, QPel : No
Format settings, GMC : No warppoints
Format settings, Matrix : Default (H.263)
Codec ID : XVID
Codec ID/Hint : XviD
Duration : 1h 33mn
Bit rate : 2 028 Kbps
Width : 640 pixels
Height : 480 pixels
Display aspect ratio : 4:3
Frame rate : 25.000 fps
Color space : YUV
Chroma subsampling : 4:2:0
Bit depth : 8 bits
Scan type : Progressive
Compression mode : Lossy
Bits/(Pixel*Frame) : 0.264
Stream size : 1.33 GiB (91%)
Writing library : XviD 1.2.1 (UTC 2008-12-04)

Audio
ID : 1
Format : AC-3
Format/Info : Audio Coding 3
Mode extension : CM (complete main)
Format settings, Endianness : Big
Codec ID : 2000
Duration : 1h 33mn
Bit rate mode : Constant
Bit rate : 192 Kbps
Channel(s) : 2 channels
Channel positions : Front: L R
Sampling rate : 48.0 KHz
Bit depth : 16 bits
Compression mode : Lossy
Stream size : 129 MiB (9%)
Alignment : Split accross interleaves
Interleave, duration : 40 ms (1.00 video frame)
Interleave, preload duration : 500 ms



Релиз от:


_________________



реклама партнёра


Вернуться к началу
 Профиль Отправить личное сообщение  
 
   Похожие торренты   Автор   Торрент   Размер 
В этой теме нет новых непрочитанных сообщений. Тарзан и затерянный город / Tarzan and the Lost City [фэнтези, боевик, приключения, семейный, 1998] DVDRip, Avo

salma3

46 | 7

1.46 ГБ

В этой теме нет новых непрочитанных сообщений. Тарзан. Легенда / The Legend of Tarzan [Боевик, приключения, 2016] WEBRip, Mvo

salma3

2673 | 265

1.46 ГБ

В этой теме нет новых непрочитанных сообщений. Тарзан. Легенда / The Legend of Tarzan [Боевик, приключения, 2016] WEB-DLRip, Dub [iTunes]

salma3

39 | 4

2.05 ГБ

В этой теме нет новых непрочитанных сообщений. Тарзан. Легенда / The Legend of Tarzan [Боевик, приключения, 2016] WEB-DL 720p, Dub [iTunes]

salma3

609 | 22

3.59 ГБ

В этой теме нет новых непрочитанных сообщений. Недооформлен Тарзан. Легенда / The Legend of Tarzan (Боевик, приключения, 2016) BDRip от MegaPeer | P Данный торрент является блокированным, причина: недооформленный торрент

marya111

0 | 0

1.46 ГБ

В этой теме нет новых непрочитанных сообщений. Тарзан. Легенда / The Legend of Tarzan [боевик, приключения, 2016] WEBRip, Dub [звук с TS]

salma3

4227 | 526

1.46 ГБ

В этой теме нет новых непрочитанных сообщений. Поглощён Тарзан. Легенда / The Legend of Tarzan (Дэвид Йэтс) [2016, Боевик, приключения, HDRip | iTunes] Dub Данный торрент является блокированным, причина: поглощённый торрент

marya111

651 | 74

2.05 ГБ


Начать новую тему Ответить на тему  [ 1 сообщение ] 




Для Мосгорсуда, Роскомнадзора и рекламодателей:: mosgorsud-torrent[собачка]yandex.ru