Торрент файл
скачать торрент магнет ссылка Добавлен: 28 мар 2014, 23:43
Размер: 1.46 ГБ
Сидеров: 3
Личеров: 3
Статус: (salma3)
Автор

СообщениеДобавлено: 28 мар 2014, 23:45 

Не в сети
Супермодератор
Аватара пользователя
Дата регистрации:
15 фев 2012, 16:44
Возраст: 28
Спасибо: 6563 / 2129
Сообщения: 43556
На шаг вперед / Hidden Agenda

Год выпуска: 2002
Жанр: Боевик
Режиссер: Скотт МакЭбой / Scott McAboy

В ролях: Бриксон Карнс, Ева Еничкова, Рик Крамер, Роберт Муннс, Ребекка Кросс, Энтони Кривелло, Хуан Антонио Девото, Джордан Гаррет, Гарретт Груц,,,

Описание:
В обстановке абсолютной секретности в США совершен запуск спутника «Осирус», несокрушимой ядерной преграды на пути у врагов сверхдержавы. Но в результате провала операции коды спутника попадают не в те руки. Теперь они растворены в крови наемника Ивана, правой руки могущественного торговца оружием Рауша, для которого эта добыча — реальный шанс стать хозяином всего мира.

Став последней надеждой спецслужб, двое лучших тайных агентов США и Англии, неуязвимый Макс и неотразимая Чериз, вступают в смертельную игру. Они рискнут жизнью, чтобы быть на шаг впереди злодеев, но удастся ли им в последнюю секунду выбить клинок Армагеддона из рук злодеев?

Семпл

Страна: США
Продолжительность: 01:26:07
Перевод: Профессиональный (многоголосый закадровый)

Файл
Качество: DVDRip [исх. DVD5]
Формат файла: AVI
Видео кодек: XviD
Аудио кодек: AC3
Video: 640x480 (1.33:1), 25 fps, XviD build 50 ~2193 kbps avg, 0.28 bit/pixel
Audio: 48 kHz, AC3 Dolby Digital, 3/2 (L,C,R,l,r) + LFE ch, ~224 kbps

Время Раздачи 11-00 до 16-00 + 20-00 до 03-00


Downloads\Hidden_Agenda_2002.DVDRip.avi
Format : AVI
Format/Info : Audio Video Interleave
File size : 1.46 GiB
Duration : 1h 26mn
Overall bit rate : 2 427 Kbps
Writing application : VirtualDubMod 1.5.10.3 | http://www.virtualdub-fr.org || (build 2550/release)
Writing library : VirtualDubMod build 2550/release

Video
ID : 0
Format : MPEG-4 Visual
Format profile : Advanced Simple@L5
Format settings, BVOP : 2
Format settings, QPel : No
Format settings, GMC : No warppoints
Format settings, Matrix : Default (H.263)
Codec ID : XVID
Codec ID/Hint : XviD
Duration : 1h 26mn
Bit rate : 2 194 Kbps
Width : 640 pixels
Height : 480 pixels
Display aspect ratio : 4:3
Frame rate : 25.000 fps
Color space : YUV
Chroma subsampling : 4:2:0
Bit depth : 8 bits
Scan type : Progressive
Compression mode : Lossy
Bits/(Pixel*Frame) : 0.286
Stream size : 1.32 GiB (90%)
Writing library : XviD 1.2.1 (UTC 2008-12-04)

Audio
ID : 1
Format : AC-3
Format/Info : Audio Coding 3
Mode extension : CM (complete main)
Format settings, Endianness : Big
Codec ID : 2000
Duration : 1h 26mn
Bit rate mode : Constant
Bit rate : 224 Kbps
Channel(s) : 6 channels
Channel positions : Front: L C R, Side: L R, LFE
Sampling rate : 48.0 KHz
Bit depth : 16 bits
Compression mode : Lossy
Stream size : 138 MiB (9%)
Alignment : Split accross interleaves
Interleave, duration : 40 ms (1.00 video frame)
Interleave, preload duration : 500 ms



Релиз от:


_________________
Проголосуй за трекер Открытый торрент трекер - RUS-MEDIA.ORG

Проголосуй Открытый торрент трекер - RUS-MEDIA.ORG



реклама партнёра


Вернуться к началу
 Профиль Отправить личное сообщение  
 
   Похожие торренты   Автор   Торрент   Размер 
В этой теме нет новых непрочитанных сообщений. Скрытые / The Hidden [ужасы, фантастика, боевик, 1987] BDRip 1080p, Dvo

salma3

28 | 17

10.1 ГБ

В этой теме нет новых непрочитанных сообщений. Скрытые / Скрытый враг / The Hidden [ужасы, фантастика, боевик, 1987] WEB-DLRip-AVC, Mvo

salma3

244 | 25

744.76 МБ

В этой теме нет новых непрочитанных сообщений. Скрытые 2 / The Hidden II [Фантастика, ужасы, 1993] DVDRip, Dvo

salma3

126 | 40

1.46 ГБ

В этой теме нет новых непрочитанных сообщений. Скрытые 2 / The Hidden II [ужасы, фантастика, криминал, 1993] DVDRip-AVC, Dvo

salma3

58 | 21

745.14 МБ

В этой теме нет новых непрочитанных сообщений. Вперед, Франция! / Allez France! [Комедия, 1964] DVDRip-AVC, Dub

salma3

92 | 13

2.36 ГБ

В этой теме нет новых непрочитанных сообщений. Скрытые 2 / Скрытый враг 2 / The Hidden II [ужасы, фантастика, криминал, 1993] DVDRip, Avo

salma3

101 | 19

1.37 ГБ

В этой теме нет новых непрочитанных сообщений. Тайная страсть / Скрытое безумие / Hidden Obsession [триллер, 1993] DVDRip, Avo

salma3

47 | 21

1.48 ГБ


Начать новую тему Ответить на тему  [ 1 сообщение ] 




Для Мосгорсуда, Роскомнадзора и рекламодателей:: mosgorsud-torrent[собачка]yandex.ru