Торрент файл
скачать торрент магнет ссылка Добавлен: 28 мар 2014, 03:37
Размер: 1.46 ГБ
Сидеров: 3
Личеров: 2
Статус: (salma3)
Автор

СообщениеДобавлено: 28 мар 2014, 03:37 

В сети
Супермодератор
Аватара пользователя
Дата регистрации:
15 фев 2012, 16:44
Возраст: 27
Спасибо: 5139 / 2090
Сообщения: 17443
Убойное чтиво / Stranger Than Fiction

Год выпуска: 2000
Жанр: триллер, комедия
Режиссер: Эрик Бросс / Eric Bross

В ролях: МакКензи Эстин, Тодд Филд, Дина Мейер, Наташа Грегсон Вагнер, Майкл Флинн, Стив О’Нилл, Скотт Субионо, Джо Ангер, Фрэнсис Бэй, Роберт Льюис

Описание:
Джаред, Остин, Эмма и Виолет — веселая компания неразлучных друзей, все свободное время проводящих вместе. Ночью к Остину приходит перепачканный кровью Джаред и рассказывает, что в драке он убил человека и теперь не знает, что ему делать. Но зачем тогда существуют друзья? Собравшись вместе, они решают «прикрыть» Джареда и помочь ему избавиться от трупа. Но, как это часто бывает, благие намерения приводят к совершенно противоположному результату — за одним убийством следуют другие и скоро ситуация выходит из-под их контроля…
Развязка будет непредсказуемой!



Страна: США
Продолжительность: 01:36:05
Перевод: Профессиональный (многоголосый закадровый)

Файл
Качество: DVDRip [исх. DVD5]
Формат файла: AVI
Видео кодек: XviD
Аудио кодек: AC3
Video: 640x480 (1.33:1), 25 fps, XviD build 50 ~1978 kbps avg, 0.26 bit/pixel
Audio: 48 kHz, AC3 Dolby Digital, 2/0 (L,R) ch, ~192 kbps

Время Раздачи 11-00 до 16-00 + 20-00 до 03-00


Downloads\Stranger_Than_Fiction_2000.DVDRip.avi
Format : AVI
Format/Info : Audio Video Interleave
File size : 1.46 GiB
Duration : 1h 36mn
Overall bit rate : 2 180 Kbps
Writing application : VirtualDubMod 1.5.10.3 | http://www.virtualdub-fr.org || (build 2550/release)
Writing library : VirtualDubMod build 2550/release

Video
ID : 0
Format : MPEG-4 Visual
Format profile : Advanced Simple@L5
Format settings, BVOP : 3
Format settings, QPel : No
Format settings, GMC : No warppoints
Format settings, Matrix : Default (H.263)
Codec ID : XVID
Codec ID/Hint : XviD
Duration : 1h 36mn
Bit rate : 1 978 Kbps
Width : 640 pixels
Height : 480 pixels
Display aspect ratio : 4:3
Frame rate : 25.000 fps
Color space : YUV
Chroma subsampling : 4:2:0
Bit depth : 8 bits
Scan type : Progressive
Compression mode : Lossy
Bits/(Pixel*Frame) : 0.258
Stream size : 1.33 GiB (91%)
Writing library : XviD 1.2.1 (UTC 2008-12-04)

Audio
ID : 1
Format : AC-3
Format/Info : Audio Coding 3
Mode extension : CM (complete main)
Format settings, Endianness : Big
Codec ID : 2000
Duration : 1h 36mn
Bit rate mode : Constant
Bit rate : 192 Kbps
Channel(s) : 2 channels
Channel positions : Front: L R
Sampling rate : 48.0 KHz
Bit depth : 16 bits
Compression mode : Lossy
Stream size : 132 MiB (9%)
Alignment : Split accross interleaves
Interleave, duration : 40 ms (1.00 video frame)
Interleave, preload duration : 500 ms



Релиз от:


_________________



реклама партнёра


Вернуться к началу
 Профиль Отправить личное сообщение  
 
   Похожие торренты   Автор   Торрент   Размер 
В этой теме нет новых непрочитанных сообщений. Персонаж / Stranger Than Fiction [Фэнтези, мелодрама, комедия, 2006] BDRip 1080p, Dub+Dvo

salma3

20 | 2

8.97 ГБ

В этой теме нет новых непрочитанных сообщений. Stranger Than Fiction -The Sound Of Morbid Ecstasy [2012, Melodic Death,Thrash,Black Metal, MP3]

PriZraK

0 | 1

83.9 МБ

В этой теме нет новых непрочитанных сообщений. Интимный незнакомец / Intimate Stranger [Триллер, 1991] DVDRip, Mvo

salma3

3 | 5

1.46 ГБ

В этой теме нет новых непрочитанных сообщений. Ночной незнакомец / Чужак в ночи / Stranger by Night [триллер, 1994] DVDRip, Mvo

salma3

7 | 4

1.34 ГБ

В этой теме нет новых непрочитанных сообщений. Кто там в ночи / Чужак в ночи / Ночной незнакомец / Stranger by Night [триллер, 1994] DVDRip, Mvo

salma3

4 | 4

703 МБ

В этой теме нет новых непрочитанных сообщений. Дракула 2000 / Dracula 2000 [ужасы, фэнтези, боевик, триллер, 2000] BDRip 1080p, Dub+Sub

salma3

54 | 14

9.81 ГБ

В этой теме нет новых непрочитанных сообщений. Дракула 2000 / Dracula 2000 [ужасы, фэнтези, боевик, триллер, 2000] BDRip 720p, Dub+Sub

salma3

101 | 8

3.83 ГБ


Начать новую тему Ответить на тему  [ 1 сообщение ] 




Для Мосгорсуда, Роскомнадзора и рекламодателей:: mosgorsud-torrent[собачка]yandex.ru