Торрент файл
скачать торрент магнет ссылка Добавлен: 24 мар 2014, 23:13
Размер: 2.1 ГБ
Сидеров: 66
Личеров: 4
Статус: (salma3)
Автор

СообщениеДобавлено: 24 мар 2014, 23:13 

Не в сети
Супермодератор
Аватара пользователя
Дата регистрации:
15 фев 2012, 16:44
Возраст: 27
Спасибо: 5149 / 2090
Сообщения: 17559
Год выхода: 2014
Жанр: ужасы, боевик
Режиссер: Том Рэйкоув

В ролях: Карина Каррек, Кира Загорский, Патрик Сабонгуй, Пол Лейзенби, Дуглас Чэпман, Филип Грэйнджер, Далиас Блейк, Брюс Кроуфорд, Джиллз Пэнтон, Ллойд Адамс, Кертис Льюм, Дэйв Коте, Рик Кивиао, Райан Хесп, Джастин Доран, Брайан МакБрайд

О фильме:
Возле острова, где располагается секретная американская военная база, терпит крушение туристический самолёт. Все пассажиры, за исключением пилота, выживают, однако на этом их злоключения не заканчиваются…



Выпущено: Канада
Продолжительность: 01:12:01
Озвучивание: Профессиональное (двухголосое) [Нтв+]

Файл
Формат: MKV
Качество: WEB-DL 720p [FooKaS]
Видео: 3399 kb/s, 1280x528
Аудио: Russian / English: AC3, 384 kb/s (6 ch)
Размер: 2.10 Gb
Скачать: Сэмпл

Релиз группы:

Общее
Toxin.2014.WEB-DL.720p.CINEMANIA.mkv
Формат : Matroska
Версия формата : Version 4 / Version 2
Размер файла : 2,10 Гбайт
Продолжительность : 1 ч. 12 м.
Общий поток : 4169 Кбит/сек
Название фильма : Release Group CINEMANIA
Дата кодирования : UTC 2014-03-24 19:01:17
Программа кодирования : mkvmerge v6.8.0 ('Theme for Great Cities') 64bit built on Mar 2 2014 21:34:26
Библиотека кодирования : libebml v1.3.0 + libmatroska v1.4.1

Видео
Идентификатор : 1
Формат : AVC
Формат/Информация : Advanced Video Codec
Профиль формата : High@L4.1
Параметр CABAC формата : Да
Параметр ReFrames формата : 8 кадров
Идентификатор кодека : V_MPEG4/ISO/AVC
Продолжительность : 1 ч. 12 м.
Битрейт : 3399 Кбит/сек
Ширина : 1280 пикселей
Высота : 528 пикселей
Соотношение сторон : 2,40:1
Режим частоты кадров : Постоянный
Частота кадров : 23,976 кадра/сек
Цветовое пространство : YUV
Субдискретизация насыщенности : 4:2:0
Битовая глубина : 8 бит
Тип развёртки : Прогрессивная
Бит/(Пиксели*Кадры) : 0.210
Размер потока : 1,67 Гбайт (80%)
Заголовок : Release Group CINEMANIA
Библиотека кодирования : x264 core 138 r2358 9e941d1
Настройки программы : cabac=1 / ref=9 / deblock=1:-2:-1 / analyse=0x3:0x113 / me=umh / subme=10 / psy=1 / psy_rd=1.05:0.15 / mixed_ref=0 / me_range=38 / chroma_me=1 / trellis=2 / 8x8dct=1 / cqm=0 / deadzone=21,11 / fast_pskip=1 / chroma_qp_offset=-5 / threads=6 / lookahead_threads=1 / sliced_threads=0 / nr=0 / decimate=0 / interlaced=0 / bluray_compat=0 / constrained_intra=0 / bframes=3 / b_pyramid=1 / b_adapt=1 / b_bias=0 / direct=3 / weightb=1 / open_gop=0 / weightp=1 / keyint=240 / keyint_min=23 / scenecut=40 / intra_refresh=0 / rc_lookahead=10 / rc=2pass / mbtree=1 / bitrate=3399 / ratetol=1.0 / qcomp=0.60 / qpmin=0 / qpmax=69 / qpstep=4 / cplxblur=20.0 / qblur=0.5 / vbv_maxrate=30000 / vbv_bufsize=30000 / nal_hrd=none / ip_ratio=1.40 / aq=1:1.00
Язык : English
Default : Да
Forced : Нет
Основные цвета : Generic film

Аудио #1
Идентификатор : 2
Формат : AC-3
Формат/Информация : Audio Coding 3
Расширение режима : CM (complete main)
Параметр Endianness формата : Big
Идентификатор кодека : A_AC3
Продолжительность : 1 ч. 12 м.
Вид битрейта : Постоянный
Битрейт : 384 Кбит/сек
Каналы : 6 каналов
Расположение каналов : Front: L C R, Side: L R, LFE
Частота : 48,0 КГц
Битовая глубина : 16 бит
Метод сжатия : С потерями
Размер потока : 198 Мбайт (9%)
Язык : Russian
Default : Да
Forced : Да

Аудио #2
Идентификатор : 3
Формат : AC-3
Формат/Информация : Audio Coding 3
Расширение режима : CM (complete main)
Параметр Endianness формата : Big
Идентификатор кодека : A_AC3
Продолжительность : 1 ч. 12 м.
Вид битрейта : Постоянный
Битрейт : 384 Кбит/сек
Каналы : 6 каналов
Расположение каналов : Front: L C R, Side: L R, LFE
Частота : 48,0 КГц
Битовая глубина : 16 бит
Метод сжатия : С потерями
Размер потока : 198 Мбайт (9%)
Язык : English
Default : Нет
Forced : Нет


_________________



реклама партнёра


Вернуться к началу
 Профиль Отправить личное сообщение  
 
   Похожие торренты   Автор   Торрент   Размер 
В этой теме нет новых непрочитанных сообщений. Токсин / Toxin [ужасы, боевик, 2014] WEB-DLRip, Mvo [НТВ+]

salma3

220 | 10

1.37 ГБ

В этой теме нет новых непрочитанных сообщений. Токсин / Toxin [ужасы, боевик, 2014] SATRip, MVO

salma3

7 | 3

1.15 ГБ

В этой теме нет новых непрочитанных сообщений. Токсин / Toxin (Том Рэйкоув / Tom Raycove) [2014г., Ужасы, боевик, DVB] MVO

Alfredovich

75 | 6

1.39 ГБ

В этой теме нет новых непрочитанных сообщений. Токсин / Toxin [ужасы, фантастика, триллер, драма, 2015] DVDRip, Avo

salma3

312 | 8

1.37 ГБ

В этой теме нет новых непрочитанных сообщений. Волки / Wolves [ужасы, боевик, 2014] WEB-DL 720p, Dub [Лицензия]

Dracon

12 | 2

3.06 ГБ

В этой теме нет новых непрочитанных сообщений. Волки / Wolves [ужасы, боевик, 2014] WEB-DL 720p, Dub [чистый звук]

Dracon

85 | 3

3.02 ГБ

В этой теме нет новых непрочитанных сообщений. Гризли / Grizzly [ужасы, боевик, триллер, 2014] BDRip 720p, Avo

salma3

238 | 41

4.65 ГБ


Начать новую тему Ответить на тему  [ 1 сообщение ] 




Для Мосгорсуда, Роскомнадзора и рекламодателей:: mosgorsud-torrent[собачка]yandex.ru