Торрент файл
скачать торрент магнет ссылка Добавлен: 24 мар 2014, 21:18
Размер: 1.35 ГБ
Сидеров: 65
Личеров: 4
Статус: (salma3)
Автор

СообщениеДобавлено: 24 мар 2014, 21:18 

Не в сети
Супермодератор
Аватара пользователя
Дата регистрации:
15 фев 2012, 16:44
Возраст: 28
Спасибо: 6565 / 2130
Сообщения: 43739
В страхе / In Fear

Год выхода: 2013
Жанр: триллер
Режиссер: Джереми Лавринг

В ролях: Йен де Кестекер, Элис Энглерт, Аллен Лич

О фильме:
Застигнутый ночью в пути, замученный и потерянный, ты невольно даешь волю своим вечным страхам. Ведь в темноте таятся неведомые опасности. Но главный вызов — не дать соблазну и злу проникнуть в душу. Или, возможно, оно уже там. Том и Люси, недавно познакомились, и решили поехать загород на музыкальный фестиваль. Но не найдя отель, в котором забронировали номер, они заблудились в чаще леса, батарейки в навигаторе и телефоне сели и вот уже глубокой холодной ночью они слишком поздно поняли — из леса за ними кто-то наблюдает и хочет убить.



Страна: Великобритания
Продолжительность: 01:24:53
Перевод: Любительское (одноголосое) [ХиХиДок]

Файл
Качество: HDRip
Формат файла: AVI
Видео кодек: XviD
Аудио кодек: MP3
Видео: 2 079 Kbps, 720x306
Звук: MP3, 192 kb/s (2 ch)






General
Complete name : E:FilmsIn.Fear.2013.HDRip.avi
Format : AVI
Format/Info : Audio Video Interleave
File size : 1.35 GiB
Duration : 1h 24mn
Overall bit rate : 2 280 Kbps
Writing library : VirtualDub build 35491/release

Video
ID : 0
Format : MPEG-4 Visual
Format profile : Advanced Simple@L5
Format settings, BVOP : 2
Format settings, QPel : No
Format settings, GMC : No warppoints
Format settings, Matrix : Default (H.263)
Muxing mode : Packed bitstream
Codec ID : XVID
Codec ID/Hint : XviD
Duration : 1h 24mn
Bit rate : 2 079 Kbps
Width : 720 pixels
Height : 306 pixels
Display aspect ratio : 2.35:1
Frame rate : 23.976 fps
Color space : YUV
Chroma subsampling : 4:2:0
Bit depth : 8 bits
Scan type : Progressive
Compression mode : Lossy
Bits/(Pixel*Frame) : 0.394
Stream size : 1.23 GiB (91%)
Writing library : XviD 64

Audio
ID : 1
Format : MPEG Audio
Format version : Version 1
Format profile : Layer 3
Mode : Joint stereo
Codec ID : 55
Codec ID/Hint : MP3
Duration : 1h 24mn
Bit rate mode : Constant
Bit rate : 192 Kbps
Channel(s) : 2 channels
Sampling rate : 44.1 KHz
Compression mode : Lossy
Stream size : 116 MiB (8%)
Alignment : Split accross interleaves
Interleave, duration : 42 ms (1.00 video frame)
Interleave, preload duration : 500 ms


_________________
Проголосуй за трекер Открытый торрент трекер - RUS-MEDIA.ORG

Проголосуй Открытый торрент трекер - RUS-MEDIA.ORG



реклама партнёра


Вернуться к началу
 Профиль Отправить личное сообщение  
 
   Похожие торренты   Автор   Торрент   Размер 
В этой теме нет новых непрочитанных сообщений. Страх темноты / The Fear of Darkness [ужасы, триллер, 2015] HDRip, Dub [iTunes]

salma3

4244 | 669

1.45 ГБ

В этой теме нет новых непрочитанных сообщений. Фрагмент страха / Fragment of Fear [драма, криминал, детектив, 1970] HDRip, Mvo

salma3

18 | 3

1.45 ГБ

В этой теме нет новых непрочитанных сообщений. Страх / Fear [триллер, драма, 1996] BDRip 720p, Dub

salma3

3 | 7

8.17 ГБ

В этой теме нет новых непрочитанных сообщений. Отражение страха / A Reflection of Fear [триллер, драма, 1973] DVDRip, Avo

salma3

44 | 3

1.46 ГБ

В этой теме нет новых непрочитанных сообщений. Страх / Fear [Триллер, ужасы, драма, 1996] BDRemux 1080p, Dub

salma3

5 | 2

22.95 ГБ

В этой теме нет новых непрочитанных сообщений. Корпорация «Страх» / Fear, Inc. [ужасы, триллер, комедия, 2016] WEB-DLRip, Avo

salma3

438 | 120

1.27 ГБ

В этой теме нет новых непрочитанных сообщений. Невиновная молодая женщина / Caged Fear [триллер, 1991] HDTVRip, Avo

salma3

54 | 20

1.46 ГБ


Начать новую тему Ответить на тему  [ 1 сообщение ] 




Для Мосгорсуда, Роскомнадзора и рекламодателей:: mosgorsud-torrent[собачка]yandex.ru