Торрент файл
скачать торрент магнет ссылка Добавлен: 24 мар 2014, 14:41
Размер: 1.47 ГБ
Сидеров: 14
Личеров: 4
Статус: (salma3)
Автор

СообщениеДобавлено: 24 мар 2014, 14:41 

Не в сети
Супермодератор
Аватара пользователя
Дата регистрации:
15 фев 2012, 16:44
Возраст: 27
Спасибо: 5121 / 2089
Сообщения: 17296
В тупике / Road Ends

Год выпуска: 1997
Жанр: Триллер
Режиссер: Рик Кинг

В ролях: Дэннис Хоппер, Питер Койот, Крис Сарандон, Джоанна Глисон, Мэриэл Хемингуэй, Берт Ремсен, Мигель Найера, Роберт Коваррубиас, Пэтришиа Ван Инген, Джеффри Торн

Описание: Когда в тихом городке появляется незнакомец с крутой внешностью и темным прошлым, у шерифа есть все основания желать его скорейшего отбытия. Особенно если он чем-то насолил крупной банде и она идет по его следу. Но когда нежелательную персону вовремя выдворить из города не удалось, полицейскому и мафиози приходится сражаться с общими врагами плечом к плечу.



Страна: США
Продолжительность: 01:34:14
Перевод1: Профессиональный [многоголосый]
Перевод2: профессиональный [двухголосый]
Перевод3: [авторский]
Оригинальная аудиодорожка: Английская

Файл
Качество: HDRip
Формат файла: AVI
Видео кодек: XviD
Аудио кодек: AC3
Видео: XviD, 1438 Кбит/с, 640x480
Аудио: Русский, английский (АС3, 2 ch, 192 Кбит/с)

Семпл

Аудио#1: Профессиональный многоголосый
Аудио#2: Профессиональный двухголосый
Аудио#3: Авторский (Сербин)
Аудио#4: Английский
Общее
Полное имя : D:1АААВ тупике.avi
Формат : AVI
Формат/Информация : Audio Video Interleave
Размер файла : 1,47 Гбайт
Продолжительность : 1 ч. 34 м.
Общий поток : 2230 Кбит/сек
Программа кодирования : VirtualDubMod 1.5.10.2 (build 2540/release)
Библиотека кодирования : VirtualDubMod build 2540/release

Видео
Идентификатор : 0
Формат : MPEG-4 Visual
Профиль формата : Advanced Simple@L5
Параметр BVOP формата : 2
Параметр QPel формата : Нет
Параметр GMC формата : Без точки перехода
Параметр матрицы формата : Default (MPEG)
Идентификатор кодека : XVID
Идентификатор кодека/Подсказка : XviD
Продолжительность : 1 ч. 34 м.
Битрейт : 1438 Кбит/сек
Ширина : 640 пикселей
Высота : 480 пикселей
Соотношение сторон : 4:3
Частота кадров : 23,976 кадра/сек
Цветовое пространство : YUV
Субдискретизация насыщенности : 4:2:0
Битовая глубина : 8 бит
Тип развёртки : Прогрессивная
Метод сжатия : С потерями
Бит/(Пиксели*Кадры) : 0.195
Размер потока : 969 Мбайт (64%)
Библиотека кодирования : XviD 1.2.1 (UTC 2008-12-04)

Аудио #1
Идентификатор : 1
Формат : AC-3
Формат/Информация : Audio Coding 3
Расширение режима : CM (complete main)
Параметр Endianness формата : Big
Идентификатор кодека : 2000
Продолжительность : 1 ч. 34 м.
Вид битрейта : Постоянный
Битрейт : 192 Кбит/сек
Каналы : 2 канала
Расположение каналов : Front: L R
Частота : 48,0 КГц
Битовая глубина : 16 бит
Метод сжатия : С потерями
Задержка видео : 2 с. 0 мс.
Размер потока : 129 Мбайт (9%)
Выравнивание : Разделение по промежуткам
Продолжительность промежутка : 42 мс. (1,00 видеокадр)
Время предзагрузки промежутка : 500 мс.

Аудио #2
Идентификатор : 2
Формат : AC-3
Формат/Информация : Audio Coding 3
Расширение режима : CM (complete main)
Параметр Endianness формата : Big
Идентификатор кодека : 2000
Продолжительность : 1 ч. 34 м.
Вид битрейта : Постоянный
Битрейт : 192 Кбит/сек
Каналы : 2 канала
Расположение каналов : Front: L R
Частота : 48,0 КГц
Битовая глубина : 16 бит
Метод сжатия : С потерями
Размер потока : 129 Мбайт (9%)
Выравнивание : Разделение по промежуткам
Продолжительность промежутка : 42 мс. (1,00 видеокадр)
Время предзагрузки промежутка : 500 мс.

Аудио #3
Идентификатор : 3
Формат : AC-3
Формат/Информация : Audio Coding 3
Расширение режима : CM (complete main)
Параметр Endianness формата : Big
Идентификатор кодека : 2000
Продолжительность : 1 ч. 34 м.
Вид битрейта : Постоянный
Битрейт : 192 Кбит/сек
Каналы : 2 канала
Расположение каналов : Front: L R
Частота : 48,0 КГц
Битовая глубина : 16 бит
Метод сжатия : С потерями
Размер потока : 129 Мбайт (9%)
Выравнивание : Разделение по промежуткам
Продолжительность промежутка : 42 мс. (1,00 видеокадр)
Время предзагрузки промежутка : 500 мс.

Аудио #4
Идентификатор : 4
Формат : AC-3
Формат/Информация : Audio Coding 3
Расширение режима : CM (complete main)
Параметр Endianness формата : Big
Идентификатор кодека : 2000
Продолжительность : 1 ч. 34 м.
Вид битрейта : Постоянный
Битрейт : 192 Кбит/сек
Каналы : 2 канала
Расположение каналов : Front: L R
Частота : 48,0 КГц
Битовая глубина : 16 бит
Метод сжатия : С потерями
Размер потока : 129 Мбайт (9%)
Выравнивание : Разделение по промежуткам
Продолжительность промежутка : 42 мс. (1,00 видеокадр)
Время предзагрузки промежутка : 500 мс.


Релиз группа:Автор рипа:


_________________



реклама партнёра


Вернуться к началу
 Профиль Отправить личное сообщение  
 
   Похожие торренты   Автор   Торрент   Размер 
В этой теме нет новых непрочитанных сообщений. Путь Зизикс / Zyzzyx Road [Триллер, 2006] DVDRip, Dvo

salma3

124 | 42

1.46 ГБ

В этой теме нет новых непрочитанных сообщений. Дорога на Арлингтон / Arlington Road [триллер, драма, 1998] DVDRip, Mvo

salma3

11 | 2

1.37 ГБ

В этой теме нет новых непрочитанных сообщений. Запретная дорога / Reservation Road [Триллер, драма, криминал, 2007] DVDRip, Dvo

salma3

2 | 3

1.37 ГБ

В этой теме нет новых непрочитанных сообщений. Цветок у дороги / The Road Killers [Боевик, триллер, драма, криминал, 1994] DVDRip, Avo

salma3

14 | 1

1.46 ГБ

В этой теме нет новых непрочитанных сообщений. The Road To Consciousness project - Road To Consciousness [2011, Symphonic Metal,Rock Opera, MP3]

PriZraK

0 | 1

125.34 МБ

В этой теме нет новых непрочитанных сообщений. All Shall Perish - This Is Where It Ends [2011, Deathcore, MP3]

PriZraK

2 | 2

133.32 МБ

В этой теме нет новых непрочитанных сообщений. No Way Out - Dead Ends [2011, Hardcore, Metalcore, MP3]

PriZraK

0 | 1

62.95 МБ


Начать новую тему Ответить на тему  [ 1 сообщение ] 




Для Мосгорсуда, Роскомнадзора и рекламодателей:: mosgorsud-torrent[собачка]yandex.ru