Торрент файл
скачать торрент магнет ссылка Добавлен: 24 мар 2014, 13:25
Размер: 1.46 ГБ
Сидеров: 3
Личеров: 10
Статус: (salma3)
Автор

СообщениеДобавлено: 24 мар 2014, 13:25 

В сети
Супермодератор
Аватара пользователя
Дата регистрации:
15 фев 2012, 16:44
Возраст: 27
Спасибо: 5134 / 2089
Сообщения: 17405
Киборг-полицейский 3 / Cyborg Cop III

Год выпуска: 1995
Жанр: Боевик, фантастика
Режиссер: Йосси Уайн / Yossi Wein

В ролях: Фрэнк Загарино, Брайан Дженесс, Дженнифер Миллер, Иэн Робертс, Джастин Иллюжн, Майкл Браннер,

Описание:
В пылу погони охотник легко забывает, что в любую минуту сам может стать жертвой. Макс (Брайан Дженесси) и "Святой" (Загарино), помощники федерального маршала, разыскав по заданию компании "ДЕЛЬТА-ТЕК" тележурналистку Эвелин Рид (Дженнифер Миллер), сами оказываются в положении преследуемых... Замена актеров и режиссера не повлияли на качество картины. Сценаристы Деннис Димстер Денк и Джефф Алберт добавили юмора.

Сэмпл

Страна: США
Продолжительность: 01:30:12
Перевод: Авторский (одноголосый) [Андрей Гаврилов]

Файл
Качество: DVDRip [исх. DVD5]
Формат файла: AVI
Видео кодек: XviD
Аудио кодек: AC3
Video: 640x480 (1.33:1), 25 fps, XviD build 50 ~2122 kbps avg, 0.28 bit/pixel
Audio: 48 kHz, AC3 Dolby Digital, 2/0 (L,R) ch, ~192 kbps

Время Раздачи 11-00 до 16-00 + 20-00 до 03-00


Downloads\Cyborg.Cop.3.avi
Format : AVI
Format/Info : Audio Video Interleave
File size : 1.46 GiB
Duration : 1h 30mn
Overall bit rate : 2 324 Kbps
Writing application : VirtualDubMod 1.5.10.3 | http://www.virtualdub-fr.org || (build 2550/release)
Writing library : VirtualDubMod build 2550/release

Video
ID : 0
Format : MPEG-4 Visual
Format profile : Advanced Simple@L5
Format settings, BVOP : 3
Format settings, QPel : No
Format settings, GMC : No warppoints
Format settings, Matrix : Default (H.263)
Codec ID : XVID
Codec ID/Hint : XviD
Duration : 1h 30mn
Bit rate : 2 123 Kbps
Width : 640 pixels
Height : 480 pixels
Display aspect ratio : 4:3
Frame rate : 25.000 fps
Color space : YUV
Chroma subsampling : 4:2:0
Bit depth : 8 bits
Scan type : Progressive
Compression mode : Lossy
Bits/(Pixel*Frame) : 0.276
Stream size : 1.34 GiB (91%)
Writing library : XviD 1.2.1 (UTC 2008-12-04)

Audio
ID : 1
Format : AC-3
Format/Info : Audio Coding 3
Mode extension : CM (complete main)
Format settings, Endianness : Big
Codec ID : 2000
Duration : 1h 30mn
Bit rate mode : Constant
Bit rate : 192 Kbps
Channel(s) : 2 channels
Channel positions : Front: L R
Sampling rate : 48.0 KHz
Bit depth : 16 bits
Compression mode : Lossy
Stream size : 124 MiB (8%)
Alignment : Split accross interleaves
Interleave, duration : 40 ms (1.00 video frame)
Interleave, preload duration : 500 ms


Релиз от:


_________________



реклама партнёра


Вернуться к началу
 Профиль Отправить личное сообщение  
 
   Похожие торренты   Автор   Торрент   Размер 
В этой теме нет новых непрочитанных сообщений. Киборг-полицейский / Cyborg Cop [фантастика, боевик, 1993] DVDRip, Avo

salma3

3 | 5

1.47 ГБ

В этой теме нет новых непрочитанных сообщений. Киборг-полицейский 2 / Cyborg Cop II [фантастика, боевик, 1994] DVDRip, Avo

salma3

2 | 12

1.46 ГБ

В этой теме нет новых непрочитанных сообщений. Киборг / Cyborg [Фантастика, боевик, 1989] BDRip-AVC, Mvo+Dvo+Avo+Sub

salma3

22 | 12

2.8 ГБ

В этой теме нет новых непрочитанных сообщений. Американский киборг: Стальной воин / American Cyborg: Steel Warrior [фантастика, боевик, приключения, 1993] DVDRip, Avo

salma3

1 | 4

1.44 ГБ

В этой теме нет новых непрочитанных сообщений. Киборг X / Cyborg X [ужасы, боевик, 2016] WEBDLRip, Mvo

salma3

509 | 31

1.39 ГБ

В этой теме нет новых непрочитанных сообщений. Киборг 2: Стеклянная тень / Cyborg 2: Glass Shadow [http://se.uploads.ru/t/rjAYo.jpg, 1993] WEB-DL 720p, Mvo+Sub

salma3

62 | 2

3.1 ГБ

В этой теме нет новых непрочитанных сообщений. Киборг - охотник / Cyber Tracker [фантастика, боевик, 1994] DVDRip, Mvo [ТВ-3]

salma3

67 | 12

1.46 ГБ


Начать новую тему Ответить на тему  [ 1 сообщение ] 




Для Мосгорсуда, Роскомнадзора и рекламодателей:: mosgorsud-torrent[собачка]yandex.ru