Торрент файл
скачать торрент магнет ссылка Добавлен: 23 мар 2014, 23:46
Размер: 1.46 ГБ
Сидеров: 2
Личеров: 12
Статус: (salma3)
Автор

СообщениеДобавлено: 23 мар 2014, 23:46 

Не в сети
Супермодератор
Аватара пользователя
Дата регистрации:
15 фев 2012, 16:44
Возраст: 27
Спасибо: 5697 / 2108
Сообщения: 24711
Киборг-полицейский 2 / Cyborg Cop II

Год выпуска: 1994
Жанр: фантастика, боевик
Режиссер: Сэм Ферстенберг / Sam Firstenberg

В ролях: Дэвид Брэдли, Морган Хантер, Джилл Пирс, Виктор Меллени, Дуглас Бристоу, Дэйл Каттс

Описание:
В этом фантастическом боевике Дэвид Брэдли в роли полицейского, потерявшего напарника во время ареста жестокого убийцы (Хантер), опасного торговца наркотиками. Убийцу приговорили к смертной казни, но вскоре Брэдли прочитал в газете, что тот бежал. Начав поиски против воли начальства, он узнает, что бандит не бежал, а был вывезен секретной правительственной организацией. Оказывается, его использовали в программе производства киборгов, которые выбрали удобный момент и восстали против людей. Киборги хотели заставить людей собрать целую армию биороботов, а потом уничтожить человечество навсегда. Среди этих киборгов оказался, как вы уже, наверняка, догадались, и наш бандит. И все бы у них получилось, если бы на него не "закатил обидку" наш герой.



Страна: США
Продолжительность: 01:33:24
Перевод: Авторский (одноголосый) [Юрий Живов]

Файл
Качество: DVDRip [исх. DVD5]
Формат файла: AVI
Видео кодек: XviD
Аудио кодек: AC3
Video: 640x480 (1.33:1), 25 fps, XviD build 50 ~2042 kbps avg, 0.27 bit/pixel
Audio: 48 kHz, AC3 Dolby Digital, 2/0 (L,R) ch, ~192 kbps

Время Раздачи 11-00 до 16-00 + 20-00 до 03-00


Downloads\Cyborg.Cop.2.avi
Format : AVI
Format/Info : Audio Video Interleave
File size : 1.46 GiB
Duration : 1h 33mn
Overall bit rate : 2 244 Kbps
Writing application : VirtualDubMod 1.5.10.3 | http://www.virtualdub-fr.org || (build 2550/release)
Writing library : VirtualDubMod build 2550/release

Video
ID : 0
Format : MPEG-4 Visual
Format profile : Advanced Simple@L5
Format settings, BVOP : 3
Format settings, QPel : No
Format settings, GMC : No warppoints
Format settings, Matrix : Default (H.263)
Codec ID : XVID
Codec ID/Hint : XviD
Duration : 1h 33mn
Bit rate : 2 042 Kbps
Width : 640 pixels
Height : 480 pixels
Display aspect ratio : 4:3
Frame rate : 25.000 fps
Color space : YUV
Chroma subsampling : 4:2:0
Bit depth : 8 bits
Scan type : Progressive
Compression mode : Lossy
Bits/(Pixel*Frame) : 0.266
Stream size : 1.33 GiB (91%)
Writing library : XviD 1.2.1 (UTC 2008-12-04)

Audio
ID : 1
Format : AC-3
Format/Info : Audio Coding 3
Mode extension : CM (complete main)
Format settings, Endianness : Big
Codec ID : 2000
Duration : 1h 33mn
Bit rate mode : Constant
Bit rate : 192 Kbps
Channel(s) : 2 channels
Channel positions : Front: L R
Sampling rate : 48.0 KHz
Bit depth : 16 bits
Compression mode : Lossy
Stream size : 128 MiB (9%)
Alignment : Split accross interleaves
Interleave, duration : 40 ms (1.00 video frame)
Interleave, preload duration : 500 ms


Релиз от:


_________________
Проголосуй за трекер Открытый торрент трекер - RUS-MEDIA.ORG




реклама партнёра


Вернуться к началу
 Профиль Отправить личное сообщение  
 
   Похожие торренты   Автор   Торрент   Размер 
В этой теме нет новых непрочитанных сообщений. Киборг / Cyborg [фантастика, боевик, 1989] BDRip, Dvo

salma3

66 | 18

1.45 ГБ

В этой теме нет новых непрочитанных сообщений. Киборг / Cyborg [Фантастика, боевик, 1989] BDRip-AVC, Mvo+Dvo+Avo+Sub

salma3

22 | 12

2.8 ГБ

В этой теме нет новых непрочитанных сообщений. Киборг X / Cyborg X [ужасы, боевик, 2016] WEBDLRip, Mvo

salma3

509 | 31

1.39 ГБ

В этой теме нет новых непрочитанных сообщений. Киборг - охотник / Cyber Tracker [фантастика, боевик, 1994] DVDRip, Mvo [ТВ-3]

salma3

64 | 12

1.46 ГБ

В этой теме нет новых непрочитанных сообщений. Киборг - охотник / Cyber Tracker [фантастика, боевик, 1994] DVDRip, Avo

salma3

17 | 4

1.46 ГБ

В этой теме нет новых непрочитанных сообщений. Киборг 2: Стеклянная тень / Cyborg 2: Glass Shadow [http://se.uploads.ru/t/rjAYo.jpg, 1993] WEB-DL 720p, Mvo+Sub

salma3

62 | 2

3.1 ГБ

В этой теме нет новых непрочитанных сообщений. Лунный полицейский / LunarCop [фантастика, боевик, драма, 1995] DVDRip-AVC, Avo

salma3

68 | 12

1.89 ГБ


Начать новую тему Ответить на тему  [ 1 сообщение ] 




Для Мосгорсуда, Роскомнадзора и рекламодателей:: mosgorsud-torrent[собачка]yandex.ru