Торрент файл
скачать торрент магнет ссылка Добавлен: 23 мар 2014, 03:16
Размер: 1.46 ГБ
Сидеров: 1
Личеров: 3
Статус: (salma3)
Автор

СообщениеДобавлено: 23 мар 2014, 03:16 

Не в сети
Супермодератор
Аватара пользователя
Дата регистрации:
15 фев 2012, 16:44
Возраст: 27
Спасибо: 5143 / 2090
Сообщения: 17478
Мой пес Бинго / Bingo

Год выпуска: 1991
Жанр: Приключения, Комедия, Семейный
Режиссер: Мэттью Роббинс / Matthew Robbins

В ролях: Синди Уильямс, Дэвид Рэши, Роберт Дж. Стайнмиллер-младший, Дэвид Френч, Курт Фуллер. Джо Гузальдо. Гленн Шэдикс, Джанет Райт, Уэйн Робсон, Сьюзи Плэксон

Описание:
Когда мальчик по имени Чаки Девлин встретил бездомного, сбежавшего из цирка пса, он сразу понял, что нашел себе самого преданного друга в жизни. Правда, парнишке приходится прятать своего Бинго от родителей, которые без восторга относятся к идее присутствия в доме самоходного комка линяющей шерсти.
Но чудеса конспирации не помогли избежать разлуки. Чаки увозят на другой конец страны, и Бинго вновь остается один. Однако лишаться такого классного хозяина наш четвероногий герой не намерен.
И храбрый Бинго отправляется на поиски Чаки через всю Америку. Переживая в пути множество удивительных приключений, верный пес с каждой минутой приближает момент встречи со своим другом…

Семпл

Страна: США
Продолжительность: 01:29:50
Перевод: Профессиональный (многоголосый, закадровый)

Файл
Качество: DVDRip [исх. DVD5]
Формат файла: AVI
Видео кодек: XviD
Аудио кодек: AC3
Video: 640x480 (1.33:1), 23.976 fps, XviD build 50 ~2130 kbps avg, 0.29 bit/pixel
Audio: 48 kHz, AC3 Dolby Digital, 2/0 (L,R) ch, ~192 kbps

Время Раздачи 11-00 до 16-00 + 20-00 до 03-00


Downloads\Bingo_1991.DVDRip.avi
Format : AVI
Format/Info : Audio Video Interleave
File size : 1.46 GiB
Duration : 1h 29mn
Overall bit rate : 2 332 Kbps
Writing application : VirtualDubMod 1.5.10.3 | http://www.virtualdub-fr.org || (build 2550/release)
Writing library : VirtualDubMod build 2550/release

Video
ID : 0
Format : MPEG-4 Visual
Format profile : Advanced Simple@L5
Format settings, BVOP : 3
Format settings, QPel : No
Format settings, GMC : No warppoints
Format settings, Matrix : Default (H.263)
Codec ID : XVID
Codec ID/Hint : XviD
Duration : 1h 29mn
Bit rate : 2 130 Kbps
Width : 640 pixels
Height : 480 pixels
Display aspect ratio : 4:3
Frame rate : 23.976 fps
Color space : YUV
Chroma subsampling : 4:2:0
Bit depth : 8 bits
Scan type : Progressive
Compression mode : Lossy
Bits/(Pixel*Frame) : 0.289
Stream size : 1.34 GiB (91%)
Writing library : XviD 1.2.1 (UTC 2008-12-04)

Audio
ID : 1
Format : AC-3
Format/Info : Audio Coding 3
Mode extension : CM (complete main)
Format settings, Endianness : Big
Codec ID : 2000
Duration : 1h 29mn
Bit rate mode : Constant
Bit rate : 192 Kbps
Channel(s) : 2 channels
Channel positions : Front: L R
Sampling rate : 48.0 KHz
Bit depth : 16 bits
Compression mode : Lossy
Stream size : 123 MiB (8%)
Alignment : Split accross interleaves
Interleave, duration : 42 ms (1.00 video frame)
Interleave, preload duration : 500 ms


Релиз от:


_________________



реклама партнёра


Вернуться к началу
 Профиль Отправить личное сообщение  
 
   Похожие торренты   Автор   Торрент   Размер 
В этой теме нет новых непрочитанных сообщений. Не говори маме, что няня умерла / Don't Tell Mom the Babysitter's Dead [комедия, семейный, 1991] DVDRip, Dvo

salma3

43 | 2

1.46 ГБ

В этой теме нет новых непрочитанных сообщений. Ракетчик / The Rocketeer [фантастика, боевик, приключения, семейный, 1991] BDRip 1080p, Mvo+Avo+Sub

salma3

40 | 4

7.76 ГБ

В этой теме нет новых непрочитанных сообщений. Кудряшка Сью / Curly Sue [мелодрама, комедия, семейный, 1991] HDRip, Mvo

salma3

84 | 30

1.45 ГБ

В этой теме нет новых непрочитанных сообщений. Трудный ребенок 2 / Problem Child 2 [комедия, семейный, 1991] WEB-DL 720p, Mvo+Sub

salma3

15 | 2

2.88 ГБ

В этой теме нет новых непрочитанных сообщений. Эрнест напугал дураков / Ernest Scared Stupid [Ужасы, фэнтези, комедия, семейный, 1991] BDRip 720p, Avo

salma3

5 | 3

4.8 ГБ

В этой теме нет новых непрочитанных сообщений. Рио 2 / Rio 2 [Мультфильм, комедия, приключения, семейный, 2014] DVDRip, dub [звук с TS]

Dracon

356 | 3

808.88 МБ

В этой теме нет новых непрочитанных сообщений. Тотальная слежка / La totale! [комедия, приключения, 1991] DVD9, Mvo

salma3

8 | 2

6.07 ГБ


Начать новую тему Ответить на тему  [ 1 сообщение ] 




Для Мосгорсуда, Роскомнадзора и рекламодателей:: mosgorsud-torrent[собачка]yandex.ru