Торрент файл
скачать торрент магнет ссылка Добавлен: 22 мар 2014, 15:07
Размер: 1.47 ГБ
Сидеров: 2
Личеров: 5
Статус: (salma3)
Автор

СообщениеДобавлено: 22 мар 2014, 15:07 

Не в сети
Супермодератор
Аватара пользователя
Дата регистрации:
15 фев 2012, 16:44
Возраст: 27
Спасибо: 5143 / 2090
Сообщения: 17513
Киборг-полицейский / Cyborg Cop

Год выпуска: 1993
Жанр: фантастика, боевик
Режиссер: Сэм Ферстенберг / Sam Firstenberg

В ролях: Дэвид Брэдли , Тодд Дженсен, Элонна Шоу, Руфус Суорт, Джон Риз-Дэйвис

Описание:
Двоих полицейских, братьев, увольняют с работы за то, что они убили маньяка, взявшего в заложницы девушку. Маньяк оказался сыном крупного издателя. После этого им предложили опасное задание, а один из братьев (Брэдли) отказался. Задание оказалось ловушкой - отряд был уничтожен, а злодей-ученый Джон Рис-Дэвис превратил брата в киборга-убийцу в своей лаборатории. Потом эти существа продавались всем, у кого на это были деньги. Узнав, что его брат пропал, Брэдли отправляется его выручать. И надо сказать, что этот парень, знакомый нам по фильму "Американский нинзя 3", умел за себя постоять.

Сэмпл

Страна: США
Продолжительность: 01:32:17
Перевод: Авторский (одноголосый) [Юрий Живов]

Файл
Качество: DVDRip [исх. DVD5]
Формат файла: AVI
Видео кодек: XviD
Аудио кодек: AC3
Video: 640x480 (1.33:1), 25 fps, XviD build 50 ~2072 kbps avg, 0.27 bit/pixel
Audio: 48 kHz, AC3 Dolby Digital, 2/0 (L,R) ch, ~192 kbps

Время Раздачи 11-00 до 16-00 + 20-00 до 03-00


General
Complete name : C:\Documents and Settings\Администратор\Мои документы\Downloads\Cyborg.Cop.1.avi
Format : AVI
Format/Info : Audio Video Interleave
File size : 1.47 GiB
Duration : 1h 32mn
Overall bit rate : 2 274 Kbps
Writing application : VirtualDubMod 1.5.10.3 | http://www.virtualdub-fr.org || (build 2550/release)
Writing library : VirtualDubMod build 2550/release

Video
ID : 0
Format : MPEG-4 Visual
Format profile : Advanced Simple@L5
Format settings, BVOP : 1
Format settings, QPel : No
Format settings, GMC : No warppoints
Format settings, Matrix : Default (MPEG)
Codec ID : XVID
Codec ID/Hint : XviD
Duration : 1h 32mn
Bit rate : 2 072 Kbps
Width : 640 pixels
Height : 480 pixels
Display aspect ratio : 4:3
Frame rate : 25.000 fps
Color space : YUV
Chroma subsampling : 4:2:0
Bit depth : 8 bits
Scan type : Progressive
Compression mode : Lossy
Bits/(Pixel*Frame) : 0.270
Stream size : 1.34 GiB (91%)
Writing library : XviD 1.2.1 (UTC 2008-12-04)

Audio
ID : 1
Format : AC-3
Format/Info : Audio Coding 3
Mode extension : CM (complete main)
Format settings, Endianness : Big
Codec ID : 2000
Duration : 1h 32mn
Bit rate mode : Constant
Bit rate : 192 Kbps
Channel(s) : 2 channels
Channel positions : Front: L R
Sampling rate : 48.0 KHz
Bit depth : 16 bits
Compression mode : Lossy
Stream size : 127 MiB (8%)
Alignment : Split accross interleaves
Interleave, duration : 40 ms (1.00 video frame)
Interleave, preload duration : 500 ms


Релиз от:


_________________



реклама партнёра


Вернуться к началу
 Профиль Отправить личное сообщение  
 
   Похожие торренты   Автор   Торрент   Размер 
В этой теме нет новых непрочитанных сообщений. Киборг-полицейский 2 / Cyborg Cop II [фантастика, боевик, 1994] DVDRip, Avo

salma3

2 | 12

1.46 ГБ

В этой теме нет новых непрочитанных сообщений. Киборг-полицейский 3 / Cyborg Cop III [Боевик, фантастика, 1995] DVDRip, Avo

salma3

4 | 11

1.46 ГБ

В этой теме нет новых непрочитанных сообщений. Американский киборг: Стальной воин / American Cyborg: Steel Warrior [фантастика, боевик, приключения, 1993] DVDRip, Avo

salma3

1 | 4

1.44 ГБ

В этой теме нет новых непрочитанных сообщений. Киборг / Cyborg [Фантастика, боевик, 1989] BDRip-AVC, Mvo+Dvo+Avo+Sub

salma3

22 | 12

2.8 ГБ

В этой теме нет новых непрочитанных сообщений. Киборг 2: Стеклянная тень / Cyborg 2: Glass Shadow [http://se.uploads.ru/t/rjAYo.jpg, 1993] WEB-DL 720p, Mvo+Sub

salma3

62 | 2

3.1 ГБ

В этой теме нет новых непрочитанных сообщений. Киборг X / Cyborg X [ужасы, боевик, 2016] WEBDLRip, Mvo

salma3

509 | 31

1.39 ГБ

В этой теме нет новых непрочитанных сообщений. Полицейский 2000 года / TC 2000 [Фантастика, боевик, 1993] BDRip 720p, Dvo+2Avo

salma3

17 | 4

4.81 ГБ


Начать новую тему Ответить на тему  [ 1 сообщение ] 




Для Мосгорсуда, Роскомнадзора и рекламодателей:: mosgorsud-torrent[собачка]yandex.ru