Торрент файл
скачать торрент магнет ссылка Добавлен: 21 мар 2014, 11:56
Размер: 2.69 ГБ
Сидеров: 34
Личеров: 2
Статус: (salma3)
Автор

СообщениеДобавлено: 21 мар 2014, 11:56 

Не в сети
Супермодератор
Аватара пользователя
Дата регистрации:
15 фев 2012, 16:44
Возраст: 28
Спасибо: 6589 / 2145
Сообщения: 44094
Год выпуска: 1995
Жанр: Фантастика
Режиссер: Роберт Керцмэн

В ролях: Николь Эггерт, Брюс Эбботт, Сьюзан Тиррелл, Питер Джейсон, Сара Даглас, Ричард Грико, Андраш Джоунс, Хезер Лэнгенкэмп, Дэвид Энтони Маршалл, Джек Нэнс, Джозеф Пилато, Том Савини, Нилс Аллен Стюарт

Описание: Действие этого женского варианта "Робокопа" происходит в неопределенном будущем. Из тюрьмы прямо во время собственной казни сбежал опаснейший преступник Грико, возглавляющий разгул преступности в городе. Он убивает следившую за ним симпатичную блондинку-полицейскую, но ученый дал ей новую жизнь в экспериментальном проекте "Лазарь". Мстительница, или разрушительница — так правильней перевести название фильма с английского — проходит тренировки и... Впрочем дальше любители боевиков пусть смотрят сами. Неплохие спецэффекты.


Страна: США
Студия: A-Pix Entertainment
Продолжительность: 01:32:58
Перевод: Профессиональный двухголосый

Файл
Качество: BDRip 720p
Видео: MPEG-4 AVC, 3500 Кбит/с, 1280x720, 24.000 кадр/с
Аудио #1: Русский (AC3, 2 ch, 192 Кбит/с) / Профессиональный двухголосый
Аудио #2: Английский (AC3, 6 ch, 448 Кбит/с)

Семпл



x264 [info]: frame I:940   Avg QP:14.86  size: 77262
x264 [info]: frame P:33924 Avg QP:18.07  size: 32980
x264 [info]: frame B:99020 Avg QP:20.58  size: 12607
x264 [info]: consecutive B-frames:  3.8%  3.6% 10.4% 33.4% 17.9% 26.9%  2.4%  0.8%  0.3%  0.2%  0.1%  0.1%  0.0%
x264 [info]: mb I  I16..4:  9.0% 71.7% 19.3%
x264 [info]: mb P  I16..4:  6.0% 22.1%  2.3%  P16..4: 29.4% 26.0%  6.7%  0.0%  0.0%    skip: 7.5%
x264 [info]: mb B  I16..4:  1.0%  2.8%  0.2%  B16..8: 30.2% 17.3%  2.5%  direct: 8.1%  skip:38.0%  L0:41.5% L1:42.3% BI:16.2%
x264 [info]: 8x8 transform intra:72.1% inter:57.3%
x264 [info]: direct mvs  spatial:97.6% temporal:2.4%
x264 [info]: coded y,uvDC,uvAC intra: 48.4% 65.0% 36.4% inter: 18.9% 30.9% 9.5%
x264 [info]: i16 v,h,dc,p: 33% 14%  7% 46%
x264 [info]: i8 v,h,dc,ddl,ddr,vr,hd,vl,hu: 11%  7% 22%  7% 10% 11%  9% 11% 12%
x264 [info]: i4 v,h,dc,ddl,ddr,vr,hd,vl,hu: 16%  8% 20%  7% 12% 11%  9%  8%  9%
x264 [info]: i8c dc,h,v,p: 35% 27% 20% 18%
x264 [info]: Weighted P-Frames: Y:18.4% UV:10.1%
x264 [info]: ref P L0: 43.9%  6.8% 20.3%  8.5%  6.5%  4.6%  3.9%  2.4%  2.3%  0.7%  0.1%
x264 [info]: ref B L0: 78.8% 10.6%  4.3%  2.3%  1.5%  1.3%  0.8%  0.4%
x264 [info]: ref B L1: 95.5%  4.5%
x264 [info]: kb/s:3498.84
Общее
Уникальный идентификатор : 222723582392211233260553612992091943549 (0xA78F006D1EAA0451AAABC06D5CDE727D)
Полное имя : D:Mои раздачиThe.Demolitionist.1995.BDRip.720p-MediaClub.mkv
Формат : Matroska
Версия формата : Version 4 / Version 2
Размер файла : 2,69 Гбайт
Продолжительность : 1 ч. 32 м.
Общий поток : 4141 Кбит/сек
Название фильма : -=MediaClub-kaspr=-
Дата кодирования : UTC 2014-03-21 06:21:55
Программа кодирования : mkvmerge v6.8.0 ('Theme for Great Cities') 64bit built on Mar 2 2014 21:34:26
Библиотека кодирования : libebml v1.3.0 + libmatroska v1.4.1

Видео
Идентификатор : 1
Формат : AVC
Формат/Информация : Advanced Video Codec
Профиль формата : High@L4.1
Параметр CABAC формата : Да
Параметр ReFrames формата : 9 кадров
Идентификатор кодека : V_MPEG4/ISO/AVC
Продолжительность : 1 ч. 32 м.
Битрейт : 3500 Кбит/сек
Ширина : 1280 пикселей
Высота : 720 пикселей
Соотношение сторон : 16:9
Режим частоты кадров : Постоянный
Частота кадров : 24,000 кадра/сек
Цветовое пространство : YUV
Субдискретизация насыщенности : 4:2:0
Битовая глубина : 8 бит
Тип развёртки : Прогрессивная
Бит/(Пиксели*Кадры) : 0.158
Размер потока : 2,22 Гбайт (83%)
Заголовок : -=MediaClub-kaspr=-
Библиотека кодирования : x264 core 142 r2409+42 04be48a tMod [8-bit@4:2:0 X86_64]
Настройки программы : cabac=1 / ref=9 / deblock=1:-3:-3 / analyse=0x3:0x113 / me=umh / subme=11 / psy=1 / fade_compensate=0.00 / psy_rd=1.00:0.20 / mixed_ref=1 / me_range=32 / chroma_me=1 / trellis=2 / 8x8dct=1 / cqm=0 / deadzone=21,11 / fast_pskip=0 / chroma_qp_offset=-3 / threads=12 / lookahead_threads=3 / sliced_threads=0 / nr=0 / decimate=0 / interlaced=0 / bluray_compat=0 / constrained_intra=0 / fgo=0 / bframes=12 / b_pyramid=2 / b_adapt=2 / b_bias=0 / direct=3 / weightb=1 / open_gop=0 / weightp=2 / keyint=240 / keyint_min=24 / scenecut=40 / intra_refresh=0 / rc=2pass / mbtree=0 / bitrate=3500 / ratetol=1.0 / qcomp=0.60 / qpmin=0:0:0 / qpmax=69:69:69 / qpstep=4 / cplxblur=20.0 / qblur=0.5 / ip_ratio=1.40 / pb_ratio=1.30 / aq=2:0.80 / aq-sensitivity=10.00 / aq-factor=1.00:1.00:1.00 / aq2=0 / aq3=0
Default : Да
Forced : Да

Аудио #1
Идентификатор : 2
Формат : AC-3
Формат/Информация : Audio Coding 3
Расширение режима : CM (complete main)
Параметр Endianness формата : Big
Идентификатор кодека : A_AC3
Продолжительность : 1 ч. 32 м.
Вид битрейта : Постоянный
Битрейт : 192 Кбит/сек
Каналы : 2 канала
Расположение каналов : Front: L R
Частота : 48,0 КГц
Битовая глубина : 16 бит
Метод сжатия : С потерями
Размер потока : 128 Мбайт (5%)
Заголовок : DVO
Язык : Russian
Default : Да
Forced : Да

Аудио #2
Идентификатор : 3
Формат : AC-3
Формат/Информация : Audio Coding 3
Расширение режима : CM (complete main)
Параметр Endianness формата : Big
Идентификатор кодека : A_AC3
Продолжительность : 1 ч. 32 м.
Вид битрейта : Постоянный
Битрейт : 448 Кбит/сек
Каналы : 6 каналов
Расположение каналов : Front: L C R, Side: L R, LFE
Частота : 48,0 КГц
Битовая глубина : 16 бит
Метод сжатия : С потерями
Размер потока : 298 Мбайт (11%)
Язык : English
Default : Нет
Forced : Нет

Меню
00:00:00.000 : en:Chapter 01
00:05:00.000 : en:Chapter 02
00:10:00.000 : en:Chapter 03
00:15:00.000 : en:Chapter 04
00:20:00.000 : en:Chapter 05
00:25:00.000 : en:Chapter 06
00:30:00.000 : en:Chapter 07
00:35:00.000 : en:Chapter 08
00:40:00.000 : en:Chapter 09
00:45:00.000 : en:Chapter 10
00:50:00.000 : en:Chapter 11
00:55:00.000 : en:Chapter 12
01:00:00.000 : en:Chapter 13
01:05:00.000 : en:Chapter 14
01:10:00.000 : en:Chapter 15
01:15:00.000 : en:Chapter 16
01:20:00.000 : en:Chapter 17
01:25:00.000 : en:Chapter 18
01:30:00.000 : en:Chapter 19


Релиз: |


_________________
Проголосуй за трекер Открытый торрент трекер - RUS-MEDIA.ORG

Проголосуй Открытый торрент трекер - RUS-MEDIA.ORG



реклама партнёра


Вернуться к началу
 Профиль Отправить личное сообщение  
 
   Похожие торренты   Автор   Торрент   Размер 
В этой теме нет новых непрочитанных сообщений. Разрушительница / The Demolitionist [ужасы, фантастика, боевик, триллер, 1995] BDRip 1080p, Dvo

salma3

87 | 43

7.04 ГБ

В этой теме нет новых непрочитанных сообщений. Москиты / Mosquito [Ужасы, фантастика, 1995] BDRip 720p, Avo

salma3

10 | 14

5.82 ГБ

В этой теме нет новых непрочитанных сообщений. Конго / Congo [фантастика, боевик, детектив, 1995] BDRip 720p, Mvo+Dvo+Sub

salma3

16 | 8

8.95 ГБ

В этой теме нет новых непрочитанных сообщений. Странные дни / Strange Days [Фантастика, боевик, триллер, 1995] BDRip 720p, Mvo

salma3

0 | 0

7.46 ГБ

В этой теме нет новых непрочитанных сообщений. Эпидемия / Outbreak [триллер, драма, фантастика, боевик, 1995] BDRip 720p, Dvo

salma3

16 | 0

7.26 ГБ

В этой теме нет новых непрочитанных сообщений. 12 обезьян / Twelve Monkeys [фантастика, триллер, детектив, 1995] BDRip 720p, Dub+Dvo+2Avo+Sub

salma3

8 | 11

6.77 ГБ

В этой теме нет новых непрочитанных сообщений. Деревня проклятых / Village of the Damned [ужасы, фантастика, триллер, 1995] BDRip 720p, Mvo+Dvo

salma3

56 | 8

4.93 ГБ


Начать новую тему Ответить на тему  [ 1 сообщение ] 




Для Мосгорсуда, Роскомнадзора и рекламодателей:: mosgorsud-torrent[собачка]yandex.ru