Торрент файл
скачать торрент магнет ссылка Добавлен: 24 сен 2013, 15:19
Размер: 1.38 ГБ
Сидеров: 242
Личеров: 3
Автор

СообщениеДобавлено: 24 сен 2013, 15:19 

Не в сети
Зам. Админа
Аватара пользователя
Дата регистрации:
02 дек 2010, 12:39
Спасибо: 12458 / 214
Сообщения: 27968
Год выпуска: 2013
Производство: Франция, Таиланд, США, Швеция
Жанр: Триллер, Драма, Криминал
Перевод: Двуголосый закадровый, любительский (HamsterStudio)
Субтитры: Отсутствуют
Примечание: присутствует ненормативная лексика.

Дата мировой премьеры: 22 мая 2013
Дата российской премьеры: 17 октября 2013, «Top Film Distribution»

Режиссер: Николас Виндинг Рефн
Продюсер: Лене Берглум, Сидони Дюма, Винсент Мэрэвэл
Актеры: Райан Гослинг, Кристин Скотт Томас, Гордон Браун, Том Берк, Чарли Руедпокэнон

Описание фильма:
Джулиан, бежавший от американского правосудия, руководит в Бангкоке клубом тайского бокса, который служит ему прикрытием для торговли наркотиками. Его мать, глава крупной преступной организации, приезжает из США, чтобы забрать тело своего любимого сына Билли: брата Джулиана только что убили за зверскую расправу над молодой проституткой. Охваченная яростью и жаждой мести мать требует, чтобы Джулиан нашел и покарал убийц. Молодому человеку придется столкнуться с Чангом — странным полицейским на пенсии, которого обожают его коллеги.


Семпл

Продолжительность: 01:29:33
Качество видео: HDRip [Рип с BDRip 720p]

Видеокодек: Xvid
Битрейт видео: ~1747 Kbit/s
Размер кадра: 720 x 384
Аудиокодек: AC3 5.1
Битрейт аудио: 448 Kbit/s
Общее
Полное имя : D:\Торренты\ФИЛЬМЫ торента\Только Бог простит.2013.HDRip.avi
Формат : AVI
Формат/Информация : Audio Video Interleave
Размер файла : 1,38 Гбайт
Продолжительность : 1 ч. 29 м.
Общий поток : 2205 Кбит/сек
Программа кодирования : VirtualDubMod 1.5.10.3 (build 2550/release)
Библиотека кодирования : VirtualDubMod build 2550/release

Видео
Идентификатор : 0
Формат : MPEG-4 Visual
Профиль формата : Advanced Simple@L5
Параметр BVOP формата : 1
Параметр QPel формата : Нет
Параметр GMC формата : Без точки перехода
Параметр матрицы формата : Выборочная
Идентификатор кодека : XVID
Идентификатор кодека/Подсказка : XviD
Продолжительность : 1 ч. 29 м.
Битрейт : 1747 Кбит/сек
Ширина : 720 пикс.
Высота : 384 пикс.
Соотношение сторон : 1,875
Частота кадров : 23,976 кадр/сек
Цветовое пространство : YUV
Подвыборка цветности : 4:2:0
Битовая глубина : 8 бит
Тип развёртки : Прогрессивная
Метод сжатия : С потерями
Бит/(Пиксели*Кадры) : 0.264
Размер потока : 1,09 Гбайт (79%)
Библиотека кодирования : XviD 1.2.1 (UTC 2008-12-04)

Аудио
Идентификатор : 1
Формат : AC-3
Формат/Информация : Audio Coding 3
Расширение режима : CM (complete main)
Идентификатор кодека : 2000
Продолжительность : 1 ч. 29 м.
Вид битрейта : Постоянный
Битрейт : 448 Кбит/сек
Каналы : 6 каналов
Расположение каналов : Front: L C R, Side: L R, LFE
Частота : 48,0 КГц
Битовая глубина : 16 бит
Метод сжатия : С потерями
Размер потока : 287 Мбайт (20%)
Выравнивание : Разделение по промежуткам
Продолжительность промежутка : 42 мс. (1,00 видеокадр)
Время предзагрузки промежутка : 500 ms







реклама партнёра


Вернуться к началу
 Профиль  
 
   Похожие торренты   Автор   Торрент   Размер 
В этой теме нет новых непрочитанных сообщений. Только Бог простит / Only God Forgives [Триллер, драма, криминал, 2013] BDRip 720p, Avo+mvo+Sub

Dracon

369 | 52

4.37 ГБ

В этой теме нет новых непрочитанных сообщений. Полицейская история 2014 / Jing Cha Gu Shi 2013 [боевик, триллер, драма, криминал, 2013] HDRip, Avo [C. Визгунов]

salma3

133 | 6

1.37 ГБ

В этой теме нет новых непрочитанных сообщений. Из пекла / Out of the Furnace [триллер, драма, криминал, 2013] HDRip, dvo

Dracon

173 | 6

1.37 ГБ

В этой теме нет новых непрочитанных сообщений. Волк / Wolf [триллер, драма, криминал, 2013] HDRip, avo

Dracon

523 | 13

1.46 ГБ

В этой теме нет новых непрочитанных сообщений. Пленницы / Prisoners [Триллер, драма, криминал, 2013] HDRip, Mvo

Dracon

4 | 3

1.37 ГБ

В этой теме нет новых непрочитанных сообщений. МакКаник / McCanick [Триллер, Драма, Криминал, 2013] HDRip, Avo

Dracon

406 | 24

1.48 ГБ

В этой теме нет новых непрочитанных сообщений. Волк / Wolf (Jim Taihuttu) [2013, триллер, драма, криминал, HDRip] AVO

Nickolas3435

15 | 2

1.37 ГБ


Начать новую тему Ответить на тему  [ 1 сообщение ] 




Для Мосгорсуда, Роскомнадзора и рекламодателей:: mosgorsud-torrent[собачка]yandex.ru