Торрент файл
скачать торрент магнет ссылка Добавлен: 19 мар 2014, 10:14
Размер: 2.4 ГБ
Сидеров: 50
Личеров: 6
Автор

СообщениеДобавлено: 19 мар 2014, 10:14 

Не в сети
Зам. Админа
Аватара пользователя
Дата регистрации:
02 дек 2010, 12:39
Спасибо: 12460 / 214
Сообщения: 27968
Год выпуска: 2013
Жанр: ужасы, триллер
Режиссер: Мак Картер
В ролях: Лиана Либерато, Айони Скай, Джеки Уивер, Харрисон Джилбертсон, Даниэль Чачран, Джен Броберг, Келли Нунан, Алин Андраде, Касия Ковальчук, Себастьян Майкл Барр

О фильме:
Начало фильма - классический переезд одной из американских семей в новый дом. Двое родителей и замкнувшийся в себе мальчик очень рады такой перемене, однако все не столь радужно, как это могло показаться. Новая соседка Итана - потрясающе красивая девочка, в которую он тут же влюбляется. Подростки начинают тесно общаться, так как у детей находится общий интерес – новый дом Итана. Как бывает во всех многолетних зданиях – у жилья есть некое свое темное прошлое, загадочность которого манит любопытных детей. Но становится совершенно очевидно: не все тайны стоит разгадывать, ибо некоторые темные углы таят нечто совершенно не безопасное…


Выпущено: США
Продолжительность: 01:25:47
Озвучивание: Любительское (двухголосое) [DeadSno & den904]

Формат: MKV
Качество: WEB-DL 720p [DownRev]
Видео: 3162 kb/s, 1280x532
Аудио: Russian / English: AC3, 384 kb/s (6 ch)
Субтитры: Russian [А.Кедров]
Дополнительно: Сохранены оригинальные чаптеры как на Blu-ray
Размер: 2.40 GB
Скачать: Сэмпл



Общее
Haunt.2013.L2.WEB-DL.720p.CINEMANIA.mkv
Формат : Matroska
Версия формата : Version 4 / Version 2
Размер файла : 2,40 Гбайт
Продолжительность : 1 ч. 25 м.
Общий поток : 4010 Кбит/сек
Название фильма : Release Group CINEMANIA
Дата кодирования : UTC 2014-03-18 21:44:03
Программа кодирования : mkvmerge v6.8.0 ('Theme for Great Cities') 64bit built on Mar 2 2014 21:34:26
Библиотека кодирования : libebml v1.3.0 + libmatroska v1.4.1

Видео
Идентификатор : 1
Формат : AVC
Формат/Информация : Advanced Video Codec
Профиль формата : Main@L3.1
Параметр CABAC формата : Нет
Параметр ReFrames формата : 2 кадра
Идентификатор кодека : V_MPEG4/ISO/AVC
Продолжительность : 1 ч. 25 м.
Битрейт : 3162 Кбит/сек
Ширина : 1280 пикселей
Высота : 532 пикселя
Соотношение сторон : 2,40:1
Режим частоты кадров : Постоянный
Частота кадров : 23,976 кадра/сек
Цветовое пространство : YUV
Субдискретизация насыщенности : 4:2:0
Битовая глубина : 8 бит
Тип развёртки : Прогрессивная
Бит/(Пиксели*Кадры) : 0.194
Размер потока : 1,89 Гбайт (79%)
Заголовок : Release Group CINEMANIA
Язык : English
Default : Да
Forced : Нет
Основные цвета : BT.709
Характеристики трансфера : BT.709
Коэффициенты матрицы : BT.709

Аудио #1
Идентификатор : 2
Формат : AC-3
Формат/Информация : Audio Coding 3
Расширение режима : CM (complete main)
Параметр Endianness формата : Big
Идентификатор кодека : A_AC3
Продолжительность : 1 ч. 25 м.
Вид битрейта : Постоянный
Битрейт : 384 Кбит/сек
Каналы : 6 каналов
Расположение каналов : Front: L C R, Side: L R, LFE
Частота : 48,0 КГц
Битовая глубина : 16 бит
Метод сжатия : С потерями
Размер потока : 236 Мбайт (10%)
Заголовок : Влад и Снежинка
Язык : Russian
Default : Да
Forced : Да

Аудио #2
Идентификатор : 3
Формат : AC-3
Формат/Информация : Audio Coding 3
Расширение режима : CM (complete main)
Параметр Endianness формата : Big
Идентификатор кодека : A_AC3
Продолжительность : 1 ч. 25 м.
Вид битрейта : Постоянный
Битрейт : 384 Кбит/сек
Каналы : 6 каналов
Расположение каналов : Front: L C R, Side: L R, LFE
Частота : 48,0 КГц
Битовая глубина : 16 бит
Метод сжатия : С потерями
Размер потока : 236 Мбайт (10%)
Язык : English
Default : Нет
Forced : Нет

Текст
Идентификатор : 4
Формат : UTF-8
Идентификатор кодека : S_TEXT/UTF8
Идентификатор кодека/Информация : UTF-8 Plain Text
Заголовок : А.Кедров
Язык : Russian
Default : Нет
Forced : Нет

Меню
00:00:00.000 : en:Chapter 1
00:13:22.000 : en:Chapter 2
00:22:58.000 : en:Chapter 3
00:32:54.000 : en:Chapter 4
00:43:44.000 : en:Chapter 5
00:53:51.000 : en:Chapter 6
01:04:54.000 : en:Chapter 7
01:13:28.000 : en:Chapter 8
01:21:08.000 : en:Chapter 9




реклама партнёра


Вернуться к началу
 Профиль  
 
   Похожие торренты   Автор   Торрент   Размер 
В этой теме нет новых непрочитанных сообщений. Прибежище / Haunt / Haunter [ужасы, триллер, 2013] BDRip 1080p, Dvo+Avo+Sub

salma3

59 | 7

7.8 ГБ

В этой теме нет новых непрочитанных сообщений. Логово зверя / Прибежище / Haunt (Мак Картер) [ужасы,Триллер, детектив, 2013] HDRip, Dub [iTunes Russia]

Dracon

11 | 2

1.37 ГБ

В этой теме нет новых непрочитанных сообщений. Прибежище / Haunt [Ужасы, 2013] DVDRip, avo

Dracon

500 | 39

1.36 ГБ

В этой теме нет новых непрочитанных сообщений. Логово зверя / Haunt [ужасы, детектив, 2013] BDRip 720p, Dub [iTunes Russia]

salma3

11 | 4

4.6 ГБ

В этой теме нет новых непрочитанных сообщений. Лимб / Haunter [ужасы, триллер, детектив, 2013] DVD5, Dub

salma3

9 | 4

4.36 ГБ

В этой теме нет новых непрочитанных сообщений. Логово зверя / Haunt [ужасы, детектив, 2013] BDRip 1080p, Dub [iTunes Russia]

salma3

5 | 4

7.65 ГБ

В этой теме нет новых непрочитанных сообщений. Прибежище / Faro [драма, приключения, 2013] DVDRip, Avo

salma3

31 | 3

1.36 ГБ


Начать новую тему Ответить на тему  [ 1 сообщение ] 




Для Мосгорсуда, Роскомнадзора и рекламодателей:: mosgorsud-torrent[собачка]yandex.ru