Торрент файл
скачать торрент магнет ссылка Добавлен: 18 мар 2014, 01:25
Размер: 1.47 ГБ
Сидеров: 1
Личеров: 2
Статус: (salma3)
Автор

СообщениеДобавлено: 18 мар 2014, 01:25 

В сети
Супермодератор
Аватара пользователя
Дата регистрации:
15 фев 2012, 16:44
Возраст: 27
Спасибо: 5148 / 2090
Сообщения: 17558
Поспешное бегство 2 / Fast Getaway II

Год выпуска: 1994
Жанр: боевик, комедия
Режиссер: Олей Сэссон / Oley Sassone

В ролях: Кори Хэйм, Синтия Ротрок, Лео Росси, Кен Лернер, Марша Стрэссмен, Шелли Лезер, Табита Томпсон, Джек Норт, Ким Пич, Джефф Олсон, ...

Описание:
Нельсон Поттер, завязавший с преступным прошлым грабитель банков, решает заняться честным бизнесом и открывает со своей подружкой страховую компанию. Однако вскоре его подставляет бывшая подельница, и чтобы вновь очистить своё имя, Нельсону придётся взять расследование в свои руки.

Семпл

Страна: США
Продолжительность: 01:30:39
Перевод: Авторский (одноголосый закадровый) [Визгунов Сергей]

Файл
Качество: DVDRip [исх. DVD5]
Формат файла: AVI
Видео кодек: XviD
Аудио кодек: AC3
Video: 640x480 (1.33:1), 25 fps, XviD build 50 ~2048 kbps avg, 0.27 bit/pixel
Audio: 48 kHz, AC3 Dolby Digital, 2/0 (L,R) ch, ~256 kbps

Время Раздачи 11-00 до 16-00 + 20-00 до 03-00


Downloads\FAST_GETAWAY_2_1994,DVDRip.avi
Format : AVI
Format/Info : Audio Video Interleave
File size : 1.47 GiB
Duration : 1h 30mn
Overall bit rate : 2 314 Kbps
Writing application : VirtualDubMod 1.5.10.3 | http://www.virtualdub-fr.org || (build 2550/release)
Writing library : VirtualDubMod build 2550/release

Video
ID : 0
Format : MPEG-4 Visual
Format profile : Advanced Simple@L5
Format settings, BVOP : 1
Format settings, QPel : No
Format settings, GMC : No warppoints
Format settings, Matrix : Default (H.263)
Codec ID : XVID
Codec ID/Hint : XviD
Duration : 1h 30mn
Bit rate : 2 049 Kbps
Width : 640 pixels
Height : 480 pixels
Display aspect ratio : 4:3
Frame rate : 25.000 fps
Color space : YUV
Chroma subsampling : 4:2:0
Bit depth : 8 bits
Scan type : Progressive
Compression mode : Lossy
Bits/(Pixel*Frame) : 0.267
Stream size : 1.30 GiB (89%)
Writing library : XviD 1.2.1 (UTC 2008-12-04)

Audio
ID : 1
Format : AC-3
Format/Info : Audio Coding 3
Mode extension : CM (complete main)
Format settings, Endianness : Big
Codec ID : 2000
Duration : 1h 30mn
Bit rate mode : Constant
Bit rate : 256 Kbps
Channel(s) : 2 channels
Channel positions : Front: L R
Sampling rate : 48.0 KHz
Bit depth : 16 bits
Compression mode : Lossy
Stream size : 166 MiB (11%)
Alignment : Split accross interleaves
Interleave, duration : 40 ms (1.00 video frame)
Interleave, preload duration : 500 ms


Релиз от:


_________________



реклама партнёра


Вернуться к началу
 Профиль Отправить личное сообщение  
 
   Похожие торренты   Автор   Торрент   Размер 
В этой теме нет новых непрочитанных сообщений. Поспешное бегство / Fast Getaway [боевик, комедия, криминал, 1991] HDTVRip, Mvo

salma3

13 | 2

1.46 ГБ

В этой теме нет новых непрочитанных сообщений. Побег / The Getaway [боевик, триллер, драма, 1994] HD-DVDRip-AVC, Mvo+Avo

salma3

45 | 5

2.19 ГБ

В этой теме нет новых непрочитанных сообщений. Побег / The Getaway [боевик, триллер, драма, 1994] HDTVRip, Mvo

salma3

189 | 2

1.35 ГБ

В этой теме нет новых непрочитанных сообщений. Побег / The Getaway [боевик, триллер, драма, 1994] HDRip, Mvo

salma3

0 | 2

1.46 ГБ

В этой теме нет новых непрочитанных сообщений. Погнали! / Getaway [Боевик, криминал, 2013] DVD5, Mvo+Sub

salma3

3 | 2

4.37 ГБ

В этой теме нет новых непрочитанных сообщений. Погнали! / Getaway [боевик, криминал, 2013] HDRip, Mvo [iTunes]

Ανδρέας

1549 | 94

1.37 ГБ

В этой теме нет новых непрочитанных сообщений. Погнали! / Getaway [боевик, криминал, 2013] BDRip 720p, Mvo [iTunes]

Ανδρέας

427 | 36

3.74 ГБ


Начать новую тему Ответить на тему  [ 1 сообщение ] 




Для Мосгорсуда, Роскомнадзора и рекламодателей:: mosgorsud-torrent[собачка]yandex.ru