Торрент файл
скачать торрент магнет ссылка Добавлен: 17 мар 2014, 20:27
Размер: 1.46 ГБ
Сидеров: 19
Личеров: 2
Статус: (salma3)
Автор

СообщениеДобавлено: 17 мар 2014, 20:27 

В сети
Супермодератор
Аватара пользователя
Дата регистрации:
15 фев 2012, 16:44
Возраст: 28
Спасибо: 6593 / 2145
Сообщения: 44165
Год выхода: 1992
Жанр: комедия
Режиссер: Ричард Пирс / Richard Pearce
В ролях: Стив Мартин /Steve Martin/, Дебра Уингер /Debra Winger/, Лолита Давидович /Lolita Davidovich/, Лукас Хаас /Lukas Haas/, Мит Лоаф /Meat Loaf/, Филип Сеймор Хоффман /Philip Seymour Hoffman/, М. С. Гэйни /M. C. Gainey/, Ла Чанзе /La Chanze/, Делорес Холл /Delores Hall/, Джон Тоулз-Бей /John Toles-Bey/, Альбертина Уокер /Albertina Walker/, Лиам Нисон /Liam Neeson/

О фильме:
Стив Мартин в роли религиозного проповедника, колесящего с труппой евангелистов по стране и дающего представления везде, где удастся. Ну прямо, как цирк-шапито. Но в цирке-шапито люди платят за представление, никак не связанное с вопросами веры. Если фокусник показывает фокусы, люди знают, что это "ловкость рук и никакого мошенничества". В данном случае, вместо карт и ловкости рук используются компьютерные данные о жителях городка, намеченного к обработке, что совсем не лишнее для проповедника, проникающего в души людей, чтобы затронуть их самые тонкие струнки.

Страна: США
Продолжительность: 01:47:59
Перевод: Профессиональный (двухголосый, закадровый)

Файл
Кодек: XviD
Качество: WEB-DLRip
Видео: 720x400, 23,976 fps, 1735 kbps
Звук: AC3, 2 ch, 192 kbps
Общее
Полное имя : Leap of Faith.1992.WEB-DLRip.avi
Формат : AVI
Формат/Информация : Audio Video Interleave
Размер файла : 1,46 Гбайт
Продолжительность : 1 ч. 47 м.
Общий поток : 1937 Кбит/сек
Программа кодирования : VirtualDubMod 1.5.10.3 | http://www.virtualdub-fr.org || (build 2550/release)
Библиотека кодирования : VirtualDubMod build 2550/release

Видео
Идентификатор : 0
Формат : MPEG-4 Visual
Профиль формата : Advanced Simple@L5
Параметр BVOP формата : 1
Параметр QPel формата : Нет
Параметр GMC формата : Без точки перехода
Параметр матрицы формата : Выборочная
Идентификатор кодека : XVID
Идентификатор кодека/Подсказка : XviD
Продолжительность : 1 ч. 47 м.
Битрейт : 1735 Кбит/сек
Ширина : 720 пикс.
Высота : 400 пикс.
Соотношение сторон : 16:9
Частота кадров : 23,976 кадр/сек
Цветовое пространство : YUV
Подвыборка цветности : 4:2:0
Битовая глубина : 8 бит
Тип развёртки : Прогрессивная
Метод сжатия : С потерями
Бит/(Пиксели*Кадры) : 0.251
Размер потока : 1,31 Гбайт (90%)
Библиотека кодирования : XviD 73

Аудио
Идентификатор : 1
Формат : AC-3
Формат/Информация : Audio Coding 3
Расширение режима : CM (complete main)
Идентификатор кодека : 2000
Продолжительность : 1 ч. 47 м.
Вид битрейта : Постоянный
Битрейт : 192 Кбит/сек
Канал(ы) : 2 канала(ов)
Расположение каналов : Front: L R
Частота : 48,0 КГц
Битовая глубина : 16 бит
Метод сжатия : С потерями
Размер потока : 148 Мбайт (10%)
Выравнивание : Разделение по промежуткам
Продолжительность промежутка : 42 мс. (1,00 видеокадр)
Время предзагрузки промежутка : 500 ms


Релиз от: Leon-masl


_________________
Проголосуй за трекер Открытый торрент трекер - RUS-MEDIA.ORG

Проголосуй Открытый торрент трекер - RUS-MEDIA.ORG



реклама партнёра


Вернуться к началу
 Профиль Отправить личное сообщение  
 
   Похожие торренты   Автор   Торрент   Размер 
В этой теме нет новых непрочитанных сообщений. 1992 / 1992 [01x01-10 из 10] (Джузеппе Джальярди) [2015, Драма, WEB-DLRip | Эй Би Видео]

Dracon

18 | 83

7.31 ГБ

В этой теме нет новых непрочитанных сообщений. Как выйти замуж за 3 дня / Leap Year [мелодрама, комедия, 2010] BDRip 720p, Dub+Dvo+Avo+Sub

salma3

92 | 7

4.56 ГБ

В этой теме нет новых непрочитанных сообщений. Каффс / Kuffs [боевик, комедия, криминал, 1992] WEB-DLRip, Dvo

salma3

84 | 6

1.45 ГБ

В этой теме нет новых непрочитанных сообщений. Каффс / Kuffs [Боевик, комедия, криминал, 1992] WEB-DLRip, Dvo

salma3

43 | 0

1.46 ГБ

В этой теме нет новых непрочитанных сообщений. Недоумки / Доноры мозга / Brain Donors [Комедия, 1992] WEB-DLRip, Mvo

salma3

81 | 24

1.37 ГБ

В этой теме нет новых непрочитанных сообщений. Зубастики. Квадрология / Critters. Quadrilogy (Стивен Херек, Мик Гэррис, Кристин Питерсон, Руперт Харви.) [ужасы, фантастика, боевик, триллер, комедия, 1986-1992] WEB-DLRip-AVC, Mvo+Avo+Sub

Dracon

60 | 14

8.72 ГБ

В этой теме нет новых непрочитанных сообщений. Leap of Fate [RPG (rogue, action), 3D, 2016] [RePack]

Sykre

38 | 11

1.12 ГБ


Начать новую тему Ответить на тему  [ 1 сообщение ] 




Для Мосгорсуда, Роскомнадзора и рекламодателей:: mosgorsud-torrent[собачка]yandex.ru