Торрент файл
скачать торрент магнет ссылка Добавлен: 17 мар 2014, 01:11
Размер: 1.47 ГБ
Сидеров: 1
Личеров: 2
Статус: (salma3)
Автор

СообщениеДобавлено: 17 мар 2014, 01:11 

В сети
Супермодератор
Аватара пользователя
Дата регистрации:
15 фев 2012, 16:44
Возраст: 27
Спасибо: 5137 / 2089
Сообщения: 17411
Новый Франкенштейн / Frankenstein

Год выпуска: 2004
Жанр: Ужасы, мистика, детектив
Режиссер: Маркус Ниспел / Marcus Nispel

В ролях: Паркер Поузи, Венсан Перес, Томас Кречманн, Адам Голдберг, Ивана Миличевич, Майкл Мэдсен

Описание:
В современном Новом Орлеане полицейские расследуют преступления, которые выводят их на след Виктора Франкенштейна (он же Виктор Хелиос) и его монстра (он же Деукалион), которым удалось прожить более 200 лет благодаря тому, что еще в начале XIX века Франкенштейн освоил генетическое перепрограммирование человеческого организма.

Семпл

Страна: США
Продолжительность: 01:23:51
Перевод: Профессиональный (многоголосый, закадровый)

Файл
Качество: DVDRip [исх. DVD5]
Формат файла: AVI
Видео кодек: XviD
Аудио кодек: AC3
Video: 640x480 (1.33:1), 25 fps, XviD build 50 ~2044 kbps avg, 0.27 bit/pixel
Audio: 48 kHz, AC3 Dolby Digital, 3/2 (L,C,R,l,r) + LFE ch, ~448 kbps

Время Раздачи 11-00 до 16-00 + 20-00 до 03-00


Downloads\Frankenstein_2004.DVDRip.avi
Format : AVI
Format/Info : Audio Video Interleave
File size : 1.47 GiB
Duration : 1h 23mn
Overall bit rate : 2 502 Kbps
Writing application : VirtualDubMod 1.5.10.3 | http://www.virtualdub-fr.org || (build 2550/release)
Writing library : VirtualDubMod build 2550/release

Video
ID : 0
Format : MPEG-4 Visual
Format profile : Advanced Simple@L5
Format settings, BVOP : 1
Format settings, QPel : No
Format settings, GMC : No warppoints
Format settings, Matrix : Default (MPEG)
Codec ID : XVID
Codec ID/Hint : XviD
Duration : 1h 23mn
Bit rate : 2 044 Kbps
Width : 640 pixels
Height : 480 pixels
Display aspect ratio : 4:3
Frame rate : 25.000 fps
Color space : YUV
Chroma subsampling : 4:2:0
Bit depth : 8 bits
Scan type : Progressive
Compression mode : Lossy
Bits/(Pixel*Frame) : 0.266
Stream size : 1.20 GiB (82%)
Writing library : XviD 1.2.1 (UTC 2008-12-04)

Audio
ID : 1
Format : AC-3
Format/Info : Audio Coding 3
Mode extension : CM (complete main)
Format settings, Endianness : Big
Codec ID : 2000
Duration : 1h 23mn
Bit rate mode : Constant
Bit rate : 448 Kbps
Channel(s) : 6 channels
Channel positions : Front: L C R, Side: L R, LFE
Sampling rate : 48.0 KHz
Bit depth : 16 bits
Compression mode : Lossy
Stream size : 269 MiB (18%)
Alignment : Split accross interleaves
Interleave, duration : 40 ms (1.00 video frame)
Interleave, preload duration : 500 ms


Релиз от:


_________________



реклама партнёра


Вернуться к началу
 Профиль Отправить личное сообщение  
 
   Похожие торренты   Автор   Торрент   Размер 
В этой теме нет новых непрочитанных сообщений. Франкенштейн / Frankenstein [Ужасы, триллер, драма, 2007] DVDRip, Mvo

salma3

133 | 10

1.37 ГБ

В этой теме нет новых непрочитанных сообщений. Франкенштейн / Frankenstein (Бернард Роуз) [2015, ужасы, триллер, DVDRip] avo

Nickolas3435

147 | 6

739.86 МБ

В этой теме нет новых непрочитанных сообщений. Франкенштейн освобожденный / Roger Corman's Frankenstein Unbound [ужасы, фантастика, 1990] DVDRip-AVC, Dvo

salma3

40 | 0

1.37 ГБ

В этой теме нет новых непрочитанных сообщений. Франкенштейн против мумии / Frankenstein vs. The Mummy (Дэмиен Леоне) [Ужасы, 2015] DVDRip, dvo

Dracon

12 | 5

1.46 ГБ

В этой теме нет новых непрочитанных сообщений. Франкенштейн / Frankenstein [Ужасы, Триллер, 2015] BDRemux 1080p, Avo+Sub

salma3

0 | 0

21.21 ГБ

В этой теме нет новых непрочитанных сообщений. Франкенштейн / Frankenstein [ужасы, фантастика, драма, мелодрама, 1994] BDRip 720p, Dub

salma3

19 | 6

5.33 ГБ

В этой теме нет новых непрочитанных сообщений. Виктор Франкенштейн / Victor Frankenstein [ужасы, фантастика, драма, 2015] CAMRip, dub

yurban

11631 | 688

1.47 ГБ


Начать новую тему Ответить на тему  [ 1 сообщение ] 




Для Мосгорсуда, Роскомнадзора и рекламодателей:: mosgorsud-torrent[собачка]yandex.ru