Торрент файл
скачать торрент магнет ссылка Добавлен: 16 мар 2014, 18:48
Размер: 1.46 ГБ
Сидеров: 29
Личеров: 4
Статус: (salma3)
Автор

СообщениеДобавлено: 16 мар 2014, 18:48 

В сети
Супермодератор
Аватара пользователя
Дата регистрации:
15 фев 2012, 16:44
Возраст: 27
Спасибо: 5139 / 2090
Сообщения: 17466
Жемчужина Нила / The Jewel of the Nile

Год выпуска: 1985
Жанр: приключения, боевик, комедия, мелодрама
Режиссер: Льюис Тиг

В ролях: Майкл Дуглас, Кэтлин Тёрнер, Дэнни ДеВито, Спирос Фокас, Эвнер Айзенберг, Пол Дэвид Магид, Ховард Джей Пэттерсон, Рэндал Эдвин Нельсон, Сэмюэл Росс Уильямс, Тимоти Дэниэл Фёрст

Описание: Герои предыдущей части Джэк и Джоан живут спокойной, размеренной жизнью богатых бездельников. У них есть всё, что могут позволить деньги: яхта, виллы, прислуга. Но им скучно.
Скучно друг с другом, и этим обществом. Что бы развлечь себя, Джоан принимает приглашение арабского шейха посетить его восточную резиденцию. Но сказка обернулась кошмаром, арабский красавец похищает Джоан, и требует выкуп — «жемчужину».
Джэк, заручившись поддержкой, своего нового партнера Ральфа, принимает непростое решение — спасти Джоан. Но есть одно осложнение, Джэку хочет отомстить старый напарник...



Страна: США
Продолжительность: 01:45:55
Перевод: Профессиональный (многоголосый, закадровый) [Киномания]
субтитры : русские, английские

Файл
Качество: BDRip-AVC
Формат файла: AVI
Видео кодек: XviD
Аудио кодек: AC3
Видео: 1024x436 (2.35:1), 23.976 fps, AVC (H.264), High@L4.1 ~1518 kbps, 0.142 bit/pixel
Аудио: 48 kHz, AC3 Dolby Digital, 3/2 (L,C,R,l,r) + LFE ch, ~448 kbps

Общее
Уникальный идентификатор : 170593000184319577340633762931583915550 (0x80570448CBDC3B24BF77F048BF4E961E)
Полное имя : D:\Zhemchuzhina.Nila.1985.BDRip-AVC_[New-Team]_by_avproh.mkv
Формат : Matroska
Размер файла : 1,46 Гбайт
Продолжительность : 1 ч. 45 м.
Общий поток : 1968 Кбит/сек
Дата кодирования : UTC 2014-03-06 09:43:32
Программа кодирования : mkvmerge v6.8.0 ('Theme for Great Cities') 64bit built on Mar 2 2014 21:34:26
Библиотека кодирования : libebml v1.3.0 + libmatroska v1.4.1

Видео
Идентификатор : 1
Формат : AVC
Формат/Информация : Advanced Video Codec
Профиль формата : High@L4.1
Параметр CABAC формата : Да
Параметр ReFrames формата : 6 кадров
Идентификатор кодека : V_MPEG4/ISO/AVC
Продолжительность : 1 ч. 45 м.
Битрейт : 1518 Кбит/сек
Ширина : 1024 пикс.
Высота : 436 пикс.
Соотношение сторон : 2,35:1
Частота кадров : 23,976 кадр/сек
Цветовое пространство : YUV
Подвыборка цветности : 4:2:0
Битовая глубина : 8 бит
Тип развёртки : Прогрессивная
Бит/(Пиксели*Кадры) : 0.142
Размер потока : 1,10 Гбайт (75%)
Библиотека кодирования : x264 core 138 r2356 a1d3d17
Настройки программы : cabac=1 / ref=6 / deblock=1:-3:-2 / analyse=0x3:0x113 / me=umh / subme=10 / psy=1 / psy_rd=1.00:0.05 / mixed_ref=1 / me_range=32 / chroma_me=1 / trellis=2 / 8x8dct=1 / cqm=0 / deadzone=21,11 / fast_pskip=0 / chroma_qp_offset=-3 / threads=9 / lookahead_threads=1 / sliced_threads=0 / nr=0 / decimate=0 / interlaced=0 / bluray_compat=0 / constrained_intra=0 / bframes=8 / b_pyramid=2 / b_adapt=2 / b_bias=0 / direct=3 / weightb=1 / open_gop=0 / weightp=2 / keyint=240 / keyint_min=24 / scenecut=40 / intra_refresh=0 / rc_lookahead=40 / rc=2pass / mbtree=1 / bitrate=1518 / ratetol=1.0 / qcomp=0.60 / qpmin=0 / qpmax=69 / qpstep=4 / cplxblur=20.0 / qblur=0.5 / ip_ratio=1.40 / aq=1:1.00
Язык : English

Аудио
Идентификатор : 2
Формат : AC-3
Формат/Информация : Audio Coding 3
Расширение режима : CM (complete main)
Идентификатор кодека : A_AC3
Продолжительность : 1 ч. 45 м.
Вид битрейта : Постоянный
Битрейт : 448 Кбит/сек
Каналы : 6 каналов
Расположение каналов : Front: L C R, Side: L R, LFE
Частота : 48,0 КГц
Битовая глубина : 16 бит
Метод сжатия : С потерями
Размер потока : 339 Мбайт (23%)
Заголовок : MVO KINOMANIYA
Язык : Russian

Текст #1
Идентификатор : 3
Формат : UTF-8
Идентификатор кодека : S_TEXT/UTF8
Идентификатор кодека/Информация : UTF-8 Plain Text
Язык : Russian

Текст #2
Идентификатор : 4
Формат : UTF-8
Идентификатор кодека : S_TEXT/UTF8
Идентификатор кодека/Информация : UTF-8 Plain Text
Язык : English

Меню
00:00:00.000 : en:00:00:00.000
00:03:45.851 : en:00:03:45.851
00:08:14.285 : en:00:08:14.285
00:11:29.647 : en:00:11:29.647
00:16:04.422 : en:00:16:04.422
00:19:49.313 : en:00:19:49.313
00:23:49.386 : en:00:23:49.386
00:24:51.115 : en:00:24:51.115
00:27:00.244 : en:00:27:00.244
00:30:28.744 : en:00:30:28.744
00:37:11.938 : en:00:37:11.938
00:44:10.106 : en:00:44:10.106
00:52:47.790 : en:00:52:47.790
00:57:11.345 : en:00:57:11.345
01:02:17.400 : en:01:02:17.400
01:08:43.828 : en:01:08:43.828
01:10:49.954 : en:01:10:49.954
01:13:52.928 : en:01:13:52.928
01:16:17.072 : en:01:16:17.072
01:23:58.200 : en:01:23:58.200
01:26:23.136 : en:01:26:23.136
01:29:59.686 : en:01:29:59.686
01:34:14.315 : en:01:34:14.315
01:40:56.717 : en:01:40:56.717





_________________



реклама партнёра


Вернуться к началу
 Профиль Отправить личное сообщение  
 
   Похожие торренты   Автор   Торрент   Размер 
В этой теме нет новых непрочитанных сообщений. Жемчужина Нила / The Jewel Of The Nile [Боевик, комедия, приключения, 1985] BDRip 1080p, 4Mvo+Dvo+Avo+Sub

salma3

33 | 7

12.82 ГБ

В этой теме нет новых непрочитанных сообщений. Американский ниндзя / American Ninja [боевик, мелодрама, приключения, 1985] BDRip, Dvo [СТС]

salma3

58 | 6

1.46 ГБ

В этой теме нет новых непрочитанных сообщений. Мой научный проект / My Science Project [фантастика, боевик, комедия, приключения, 1985] BDRip, Mvo

salma3

22 | 3

1.46 ГБ

В этой теме нет новых непрочитанных сообщений. Мой научный проект / My Science Project [фантастика, боевик, комедия, приключения, 1985] BDRip 720p, Mvo

salma3

2 | 1

4.66 ГБ

В этой теме нет новых непрочитанных сообщений. Леди-ястреб / Ladyhawke [Фэнтези, мелодрама, приключения, 1985] BDRip 1080p, Mvo+Avo

salma3

27 | 5

9.58 ГБ

В этой теме нет новых непрочитанных сообщений. Залив Аламо / Alamo Bay [Боевик, драма, мелодрама, 1985] BDRip, Mvo

salma3

0 | 0

1.46 ГБ

В этой теме нет новых непрочитанных сообщений. Шпионы как мы / Spies Like Us [комедия, приключения, 1985] BDRip, Mvo+Avo

salma3

23 | 3

1.46 ГБ


Начать новую тему Ответить на тему  [ 1 сообщение ] 




Для Мосгорсуда, Роскомнадзора и рекламодателей:: mosgorsud-torrent[собачка]yandex.ru