Торрент файл
скачать торрент магнет ссылка Добавлен: 15 мар 2014, 01:21
Размер: 1.46 ГБ
Сидеров: 4
Личеров: 2
Статус: (salma3)
Автор

СообщениеДобавлено: 15 мар 2014, 01:21 

В сети
Супермодератор
Аватара пользователя
Дата регистрации:
15 фев 2012, 16:44
Возраст: 27
Спасибо: 5139 / 2089
Сообщения: 17411
Двойная жизнь / Second Skin

Год выпуска: 2000
Жанр: Детектив, триллер
Режиссер: Дарелл Рудт / Darrell Roodt

В ролях: Наташа Хенстридж, Энгус МакФадьен, Лайам Вейт, Norman Anstey, Питер Фонда, Андре Джейкобс, Пьер Мальэрб, Терри Нортон, Пэдди Кэнаван, Анита Берк

Описание:
Будничная скука, усыпляющая Сэма в провинциальном американском городке, прервалась после появления таинственной незнакомки. Кристал — авантюристка-блондинка — скрывает свое прошлое. Но и Сэм оберегает свою жизнь от любопытных взглядов. Их безумная страсть чревата разрывом, а близость — опасным разоблачением. Другого выхода, кроме как избавиться друг от друга, здесь нет?



Страна: Канада, Великобритания, ЮАР
Продолжительность: 01:27:02
Перевод: Профессиональный (многоголосый, закадровый)

Файл
Качество: DVDRip [исх. DVD5]
Формат файла: AVI
Видео кодек: XviD
Аудио кодек: AC3
Video: 720x400 (1.80:1), 25 fps, XviD build 50 ~1949 kbps avg, 0.27 bit/pixel
Audio: 48 kHz, AC3 Dolby Digital, 3/2 (L,C,R,l,r) + LFE ch, ~448 kbps

Время Раздачи 11-00 до 16-00 + 20-00 до 03-00


Downloads\Second_Skin_2000.DVDRip.avi
Format : AVI
Format/Info : Audio Video Interleave
File size : 1.46 GiB
Duration : 1h 27mn
Overall bit rate : 2 408 Kbps
Writing application : VirtualDubMod 1.5.10.3 | http://www.virtualdub-fr.org || (build 2550/release)
Writing library : VirtualDubMod build 2550/release

Video
ID : 0
Format : MPEG-4 Visual
Format profile : Advanced Simple@L5
Format settings, BVOP : 1
Format settings, QPel : No
Format settings, GMC : No warppoints
Format settings, Matrix : Default (H.263)
Codec ID : XVID
Codec ID/Hint : XviD
Duration : 1h 27mn
Bit rate : 1 950 Kbps
Width : 720 pixels
Height : 400 pixels
Display aspect ratio : 16:9
Frame rate : 25.000 fps
Color space : YUV
Chroma subsampling : 4:2:0
Bit depth : 8 bits
Scan type : Progressive
Compression mode : Lossy
Bits/(Pixel*Frame) : 0.271
Stream size : 1.19 GiB (81%)
Writing library : XviD 1.2.1 (UTC 2008-12-04)

Audio
ID : 1
Format : AC-3
Format/Info : Audio Coding 3
Mode extension : CM (complete main)
Format settings, Endianness : Big
Codec ID : 2000
Duration : 1h 27mn
Bit rate mode : Constant
Bit rate : 448 Kbps
Channel(s) : 6 channels
Channel positions : Front: L C R, Side: L R, LFE
Sampling rate : 48.0 KHz
Bit depth : 16 bits
Compression mode : Lossy
Stream size : 279 MiB (19%)
Alignment : Split accross interleaves
Interleave, duration : 40 ms (1.00 video frame)
Interleave, preload duration : 500 ms

Релиз от:


_________________



реклама партнёра


Вернуться к началу
 Профиль Отправить личное сообщение  
 
   Похожие торренты   Автор   Торрент   Размер 
В этой теме нет новых непрочитанных сообщений. Никита-двойная жизнь / Два убийцы / Shattered Image [Детективный триллер, 1998] DVDRip, Avo

salma3

5 | 1

1.37 ГБ

В этой теме нет новых непрочитанных сообщений. Двойная жизнь [01-10 из 10] [Мелодрама, 2014] WEB-DLRip

Dracon

238 | 46

5.87 ГБ

В этой теме нет новых непрочитанных сообщений. Двойная жизнь [01-07 из 10] [Мелодрама, 2014] SATRip

Dracon

0 | 2

3.99 ГБ

В этой теме нет новых непрочитанных сообщений. Skin Deep / Глубоко В Skin Diamond (Jonni Darkko / Evil Angel) (Skin Diamond, Prince Yahshua, Xander Corvus, Jon Jon, Billy Glide...) [2014 г., Gonzo Anal, WEB-DL 544p](Split Scenes)

friizze

12 | 25

3.12 ГБ

В этой теме нет новых непрочитанных сообщений. Повторно не судят / Двойная опасность / Double Jeopardy [Триллер, 1992] DVDRip, Avo

salma3

57 | 10

1.46 ГБ

В этой теме нет новых непрочитанных сообщений. Двойная жизнь Вероники / La double vie de Véronique / The Double Life of Veronique [фэнтези, драма, мелодрама, музыка, 1991] BDRemux 1080p, Mvo+Sub

salma3

6 | 10

20.54 ГБ

В этой теме нет новых непрочитанных сообщений. Своя тусовка / The In Crowd [Триллер, детектив, драма, 2000] DVDRip, Dub+Mvo

salma3

42 | 0

2.04 ГБ


Начать новую тему Ответить на тему  [ 1 сообщение ] 




Для Мосгорсуда, Роскомнадзора и рекламодателей:: mosgorsud-torrent[собачка]yandex.ru