Торрент файл
скачать торрент магнет ссылка Добавлен: 15 мар 2014, 00:19
Размер: 1.46 ГБ
Сидеров: 71
Личеров: 8
Статус: (salma3)
Автор

СообщениеДобавлено: 15 мар 2014, 00:19 

Не в сети
Супермодератор
Аватара пользователя
Дата регистрации:
15 фев 2012, 16:44
Возраст: 27
Спасибо: 5131 / 2089
Сообщения: 17372
Кара небесная / Switch

Год выхода: 1991
Жанр: Фэнтези, комедия, драма, мелодрама, криминал
Режиссёр: Блейк Эдвардс

В ролях: Эллен Баркин, Джимми Смитс, ДжоБет Уильямс, Лоррейн Бракко, Тони Робертс, Перри Кинг, Брюс Пэйн, Лизетт Энтони, Виктория Махони, Бэзил Хоффман...

О фильме:
Стив Брукс, сердцеед и соблазнитель женщин, отправляясь на очередную вечеринку, не знал, что погибнет от рук своих любимиц и на следующий день превратится в эффектную блондинку. Теперь, чтобы не попасть в Ад, он должен понравиться хотя бы одному человеку… точнее, хотя бы одной женщине.



Страна: США
Продолжительность: 1:43:09
Перевод: Профессиональный (дублированный) [Ленфильм]

Файл
Качество: DVDRip
Формат файла: AVI
Видео кодек: XviD
Аудио кодек: AC3
Видео: XviD, 720x304 (2.35:1), 23.976 кадр/с, 1827 Кбит/с
Аудио: Русский, 48000 Гц, 192 Кбит/с, 2 канала (Стерео) | DUB, Ленфильм

Автор рипа - ivandubskoj

Общее
Полное имя : Kara.nebesnaya.1991.DUB.DVDRip.avi
Формат : AVI
Формат/Информация : Audio Video Interleave
Размер файла : 1,46 Гбайт
Продолжительность : 1 ч. 43 м.
Общий поток : 2027 Кбит/сек
Название фильма : Кара небесная / Switch (1991) DVDRip
Жанр : Фэнтези, комедия, драма, мелодрама, криминал
Дата записи : 14.03.2014
Программа кодирования : VirtualDubMod 1.5.10.3 (build 2550/release)
Библиотека кодирования : VirtualDubMod build 2550/release
Правообладатель : rip by ivandubskoj
Видео
Идентификатор : 0
Формат : MPEG-4 Visual
Профиль формата : Advanced Simple@L5
Параметр BVOP формата : 1
Параметр QPel формата : Нет
Параметр GMC формата : Без точки перехода
Параметр матрицы формата : Default (MPEG)
Идентификатор кодека : XVID
Идентификатор кодека/Подсказка : XviD
Продолжительность : 1 ч. 43 м.
Битрейт : 1827 Кбит/сек
Ширина : 720 пикселей
Высота : 304 пикселя
Соотношение сторон : 2,35:1
Частота кадров : 23,976 кадра/сек
Цветовое пространство : YUV
Субдискретизация насыщенности : 4:2:0
Битовая глубина : 8 бит
Тип развёртки : Прогрессивная
Метод сжатия : С потерями
Бит/(Пиксели*Кадры) : 0.348
Размер потока : 1,32 Гбайт (90%)
Библиотека кодирования : XviD 73
Аудио
Идентификатор : 1
Формат : AC-3
Формат/Информация : Audio Coding 3
Расширение режима : CM (complete main)
Параметр Endianness формата : Big
Идентификатор кодека : 2000
Продолжительность : 1 ч. 43 м.
Вид битрейта : Постоянный
Битрейт : 192 Кбит/сек
Каналы : 2 канала
Расположение каналов : Front: L R
Частота : 48,0 КГц
Битовая глубина : 16 бит
Метод сжатия : С потерями
Размер потока : 142 Мбайт (9%)
Выравнивание : Разделение по промежуткам
Продолжительность промежутка : 64 мс. (1,53 видеокадра)
Время предзагрузки промежутка : 500 мс.
Заголовок : Russian (DUB, Ленфильм)



_________________



реклама партнёра


Вернуться к началу
 Профиль Отправить личное сообщение  
 
   Похожие торренты   Автор   Торрент   Размер 
В этой теме нет новых непрочитанных сообщений. Подмена / Switch [комедия, 1991] DVDRip-AVC, Avo+Sub

salma3

54 | 2

1.3 ГБ

В этой теме нет новых непрочитанных сообщений. Больше, чем друг / The Switch [драма, мелодрама, комедия, 2010] BDRemux, Dub

salma3

12 | 3

27.31 ГБ

В этой теме нет новых непрочитанных сообщений. Больше, чем друг / The Switch [драма, мелодрама, комедия, 2010] BDRip 720p, Dub+Mvo

salma3

53 | 6

4.82 ГБ

В этой теме нет новых непрочитанных сообщений. Лос-Анджелесская история / L.A. Story [комедия, мелодрама, драма, фэнтези, 1991] BDRip 720p, Mvo+2Avo+Sub

salma3

24 | 2

5.43 ГБ

В этой теме нет новых непрочитанных сообщений. Менее привычная жизнь / A Life Less Ordinary [фэнтези, драма, мелодрама, комедия, криминал, 1997] BDRip 720p, Mvo

salma3

63 | 31

4.53 ГБ

В этой теме нет новых непрочитанных сообщений. Невезучие / Pure Luck [комедия, криминал, детектив, 1991] DVDRip, Mvo

salma3

93 | 8

1.46 ГБ

В этой теме нет новых непрочитанных сообщений. Доктор Голливуд / Doc Hollywood [драма, мелодрама, комедия, 1991] WEB-DL 1080p, Dub

salma3

24 | 12

5.24 ГБ


Начать новую тему Ответить на тему  [ 1 сообщение ] 




Для Мосгорсуда, Роскомнадзора и рекламодателей:: mosgorsud-torrent[собачка]yandex.ru