Торрент файл
скачать торрент магнет ссылка Добавлен: 11 мар 2014, 14:40
Размер: 2.18 ГБ
Сидеров: 81
Личеров: 5
Статус: (PriZraK)
Автор

СообщениеДобавлено: 11 мар 2014, 14:40 

Не в сети
Супермодератор
Аватара пользователя
Дата регистрации:
15 фев 2012, 16:44
Возраст: 27
Спасибо: 5121 / 2089
Сообщения: 17273
Год выхода: 1992
Жанр: Боевик, комедия
Режиссер: Ринго Лам, Харк Цуй
В ролях: Джеки Чан, Мэгги Чун, Тедди Робин Кван, Энтони Чан, Филип Чан, Сильвия Чан, Альфред Чун, Танг Чо «Джо» Чунг, Дэвид Чианг

О фильме:
Джеки Чан исполняет сразу две роли — двух абсолютно одинаковых близнецов, разлученных при рождении и оказавшихся в разных семьях и по разные стороны Тихого океана. Один из близнецов — специалист по боевым искусствам, хулиган и задира, работает автомехаником в гараже отеля, в котором останавливается во время гастролей в Гонконге другой — знаменитый музыкант всемирно известный дирижер из Нью-Йорка. Когда они случайно встречаются, начинается невероятная заварушка!


Страна: Гонконг
Студия: Dimension Films, Distant Horizons, Golden Way Films Ltd, Hong Kong Film Directors Guild, Media Asia Films Ltd.
Продолжительность: 01:29:01 (Американская версия)
Перевод: Профессиональный (многоголосый закадровый) Екатеринбург Арт

Файл
Качество: BDRip 720p
Видео: x264, 1280x536p, 23.976 fps, ~3309 kbps
Звук: АС3, 2 ch, 192 Кбит/с



General
Unique ID : 212334187730090496626665323722588062867 (0x9FBE13B8AC8DD477AD0B2AB624088493)
Complete name : D:КИНОBliznecy-Drakony.(1992).BDRip-AVC.[-=DoMiNo=-].mkv
Format : Matroska
Format version : Version 2
File size : 2.18 GiB
Duration : 1h 29mn
Overall bit rate : 3 502 Kbps
Encoded date : UTC 2014-03-11 00:16:41
Writing application : mkvmerge v6.1.0 ('Old Devil') built on Mar 4 2013 09:10:42
Writing library : libebml v1.3.0 + libmatroska v1.4.0

Video
ID : 1
Format : AVC
Format/Info : Advanced Video Codec
Format profile : High@L4.1
Format settings, CABAC : Yes
Format settings, ReFrames : 9 frames
Codec ID : V_MPEG4/ISO/AVC
Duration : 1h 29mn
Bit rate : 3 309 Kbps
Width : 1 280 pixels
Height : 536 pixels
Display aspect ratio : 2.40:1
Frame rate mode : Constant
Frame rate : 23.976 fps
Color space : YUV
Chroma subsampling : 4:2:0
Bit depth : 8 bits
Scan type : Progressive
Bits/(Pixel*Frame) : 0.201
Stream size : 2.01 GiB (93%)
Writing library : x264 core 130 r2273 b3065e6
Encoding settings : cabac=1 / ref=9 / deblock=1:-3:-3 / analyse=0x3:0x133 / me=umh / subme=11 / psy=1 / psy_rd=1.00:0.10 / mixed_ref=1 / me_range=32 / chroma_me=1 / trellis=2 / 8x8dct=1 / cqm=0 / deadzone=21,11 / fast_pskip=0 / chroma_qp_offset=-6 / threads=6 / lookahead_threads=6 / sliced_threads=0 / slices=4 / nr=0 / decimate=1 / interlaced=0 / bluray_compat=0 / constrained_intra=0 / bframes=8 / b_pyramid=2 / b_adapt=2 / b_bias=0 / direct=3 / weightb=1 / open_gop=0 / weightp=2 / keyint=240 / keyint_min=24 / scenecut=40 / intra_refresh=0 / rc_lookahead=50 / rc=2pass / mbtree=1 / bitrate=3309 / ratetol=1.0 / qcomp=0.60 / qpmin=0 / qpmax=69 / qpstep=4 / cplxblur=20.0 / qblur=0.5 / ip_ratio=1.40 / aq=1:1.50
Default : Yes
Forced : No

Audio
ID : 2
Format : AC-3
Format/Info : Audio Coding 3
Mode extension : CM (complete main)
Format settings, Endianness : Big
Codec ID : A_AC3
Duration : 1h 29mn
Bit rate mode : Constant
Bit rate : 192 Kbps
Channel(s) : 2 channels
Channel positions : Front: L R
Sampling rate : 48.0 KHz
Bit depth : 16 bits
Compression mode : Lossy
Stream size : 122 MiB (5%)
Title : Екатеринбург Арт [MVO]
Language : Russian
Default : Yes
Forced : No


_________________



реклама партнёра


Вернуться к началу
 Профиль Отправить личное сообщение  
 
   Похожие торренты   Автор   Торрент   Размер 
В этой теме нет новых непрочитанных сообщений. Драконы Нью-Йорка / Revenge of the Green Dragons (Вэй Кеунг Лау, Эндрю Лу) [Боевик, драма, криминал, 2014] BDRip 720p, dub [Чистый звук]

Dracon

88 | 63

4.81 ГБ

В этой теме нет новых непрочитанных сообщений. Драконы Нью-Йорка / Revenge of the Green Dragons (Вэй Кеунг Лау, Эндрю Лу) [Боевик, драма, криминал, 2014] BDRip 1080p, dub [Чистый звук]

Dracon

73 | 67

9.97 ГБ

В этой теме нет новых непрочитанных сообщений. Драконы навсегда / Dragons Forever / Fei lung mang jeung [комедия, боевые искусства, 1988] BDRip 1080p, 2Mvo+2Avo

salma3

17 | 7

9.1 ГБ

В этой теме нет новых непрочитанных сообщений. Драконы Нью-Йорка / Revenge of the Green Dragons (Вэй Кеунг Лау, Эндрю Лу) [Боевик, драма, криминал, 2014] НDRip, Dvo

Dracon

414 | 13

1.37 ГБ

В этой теме нет новых непрочитанных сообщений. Драконы Нью-Йорка / Revenge of the Green Dragons (Вэй Кеунг Лау, Эндрю Лу) [Боевик, драма, криминал, 2014] НDRip, dub [Чистый звук]

Dracon

5534 | 265

1.37 ГБ

В этой теме нет новых непрочитанных сообщений. Мастер / Long hang tian xia [Боевик, боевые искусства, 1992] BDRip 1080p, Avo

salma3

64 | 7

5.98 ГБ

В этой теме нет новых непрочитанных сообщений. Поглощён Драконы: Защитники Олуха / Dragons: Defenders of Berk [S02x01-09 из 20] ( Энтони Белл, Джон Санфорд, Луи Дел Кармен) [2013, фэнтези, приключения, комедия, семейный, WEB-DLRip] Данный торрент является блокированным, причина: поглощённый торрент

Nickolas3435

818 | 106

2.84 ГБ


Начать новую тему Ответить на тему  [ 1 сообщение ] 




Для Мосгорсуда, Роскомнадзора и рекламодателей:: mosgorsud-torrent[собачка]yandex.ru