Торрент файл
скачать торрент магнет ссылка Добавлен: 10 мар 2014, 23:04
Размер: 1.47 ГБ
Сидеров: 2
Личеров: 2
Статус: (salma3)
Автор

СообщениеДобавлено: 10 мар 2014, 23:04 

В сети
Супермодератор
Аватара пользователя
Дата регистрации:
15 фев 2012, 16:44
Возраст: 27
Спасибо: 5130 / 2089
Сообщения: 17365
Предательство голубки / Betrayal of the Dove

«Birds of a feather ... prey together»

Год выпуска: 1993
Жанр: триллер, криминал
Режиссер: Стрэтфорд Хэмильтон / Strathford Hamilton

В ролях: Хелен Слэйтер, Билли Зейн, Харви Корман, Келли ЛеБрок, Себастьян Харрисон, Алан Тик

Описание:
Симпатичная молодая женщина одна растила дочку с красивым именем Осень. Внезапно в ее жизни начинают происходить страшные вещи. В ее дом, оборудованный современной системой сигнализации, пытаются проникнуть. Далее покушения на жизнь молодой мамы предпринимаются все чаще и чаще...



Страна: США
Продолжительность: 01:29:56
Перевод: Профессиональный (многоголосый, закадровый)

Файл
Качество: DVDRip [исх. DVD5]
Формат файла: AVI
Видео кодек: XviD
Аудио кодек: AC3
Video: 640x480 (1.33:1), 25 fps, XviD build 50 ~1941 kbps avg, 0.25 bit/pixel
Audio: 48 kHz, AC3 Dolby Digital, 3/2 (L,C,R,l,r) + LFE ch, ~384 kbps

Время Раздачи 11-00 до 16-00 + 20-00 до 03-00


Downloads\Betrayal_of_the Dove_1993.DVDRip.avi
Format : AVI
Format/Info : Audio Video Interleave
File size : 1.47 GiB
Duration : 1h 29mn
Overall bit rate : 2 335 Kbps
Writing application : VirtualDubMod 1.5.10.3 | http://www.virtualdub-fr.org || (build 2550/release)
Writing library : VirtualDubMod build 2550/release

Video
ID : 0
Format : MPEG-4 Visual
Format profile : Advanced Simple@L5
Format settings, BVOP : 3
Format settings, QPel : No
Format settings, GMC : No warppoints
Format settings, Matrix : Default (H.263)
Codec ID : XVID
Codec ID/Hint : XviD
Duration : 1h 29mn
Bit rate : 1 941 Kbps
Width : 640 pixels
Height : 480 pixels
Display aspect ratio : 4:3
Frame rate : 25.000 fps
Color space : YUV
Chroma subsampling : 4:2:0
Bit depth : 8 bits
Scan type : Progressive
Compression mode : Lossy
Bits/(Pixel*Frame) : 0.253
Stream size : 1.22 GiB (83%)
Writing library : XviD 1.2.1 (UTC 2008-12-04)

Audio
ID : 1
Format : AC-3
Format/Info : Audio Coding 3
Mode extension : CM (complete main)
Format settings, Endianness : Big
Codec ID : 2000
Duration : 1h 29mn
Bit rate mode : Constant
Bit rate : 384 Kbps
Channel(s) : 6 channels
Channel positions : Front: L C R, Side: L R, LFE
Sampling rate : 48.0 KHz
Bit depth : 16 bits
Compression mode : Lossy
Stream size : 247 MiB (16%)
Alignment : Split accross interleaves
Interleave, duration : 40 ms (1.00 video frame)
Interleave, preload duration : 500 ms



Релиз от:


_________________



реклама партнёра


Вернуться к началу
 Профиль Отправить личное сообщение  
 
   Похожие торренты   Автор   Торрент   Размер 
В этой теме нет новых непрочитанных сообщений. Предательство за предательством / Acts of Betrayal [Боевик, триллер, 1997] DVDRip, Avo [Гаврилов]

salma3

5 | 3

748.74 МБ

В этой теме нет новых непрочитанных сообщений. Измена / Предательство / Betrayal / 1 сезон 1-13 серии из 13 [Драма, 2013] WEB-DLRip, Mvo [Fox Life]

salma3

133 | 36

6.34 ГБ

В этой теме нет новых непрочитанных сообщений. Измена / Предательство / Betrayal / 1 сезон 1-13 серии из 13 [Драма, 2013] WEB-DLRip 1080p, Mvo [Fox Life]

hobbit1021

1 | 2

21.62 ГБ

В этой теме нет новых непрочитанных сообщений. Предательство / Bloedlink (Йорам Люрсен) [триллер, 2014] DVDRip, dvo

Dracon

857 | 13

1.37 ГБ

В этой теме нет новых непрочитанных сообщений. Куда ты идешь вся голая / Dove vai tutta nuda [Комедия, 1969] DVDRip, Avo

salma3

57 | 6

1.37 ГБ

В этой теме нет новых непрочитанных сообщений. Вслепую / Blind Side [Триллер, криминал, 1993] DVDRip, Avo

salma3

33 | 7

1.45 ГБ

В этой теме нет новых непрочитанных сообщений. Охрана / La scorta [Триллер, драма, криминал, 1993] DVDRip, Dvo

salma3

88 | 1

1.46 ГБ


Начать новую тему Ответить на тему  [ 1 сообщение ] 




Для Мосгорсуда, Роскомнадзора и рекламодателей:: mosgorsud-torrent[собачка]yandex.ru