Торрент файл
скачать торрент магнет ссылка Добавлен: 09 мар 2014, 03:40
Размер: 1.46 ГБ
Сидеров: 15
Личеров: 2
Статус: (salma3)
Автор

СообщениеДобавлено: 09 мар 2014, 03:40 

Не в сети
Супермодератор
Аватара пользователя
Дата регистрации:
15 фев 2012, 16:44
Возраст: 28
Спасибо: 6589 / 2145
Сообщения: 44145
Библейские сказания: Эсфирь / The Bible: Esther

Год выпуска: 1999
Жанр: Драма, биография, история
Режиссер: Раффаэле Мертес

В ролях: Луис Ломбард, Ф. Мюррэй Абрахам, Юрген Прохнов, Томас Кречман, Фрэнк Бэйкер, Джон Холлис, Умберто Орсини, Фил Дэвис, Кристофер Эттридж, Наташа Уильямс, Орнелла Мути, Джереми Циммерман

Описание:
После разрушения Иерусалима, примерно за 6 веков до Рождества Христова, иудеи были взяты в плен Вавилоном. Но через 60 лет вавилонские земли были завоёваны персидской армией и присоединены к новой огромной империи. Указом царя Кира все плененные народы могли свободно вернуться на свои родные земли. Не все иудеи вернулись в Иудею, многие решили остаться в персидской империи. Эту удивительную историю спасения от неминуемой гибели целого народа, можно найти на страницах Библии. В те далекие времена Израиль был в рабстве у Мидо-Персидского царя Артаксеркса. Отвергнув своенравную царицу Астин, он решил выбрать новую супругу из всех девушек своей империи. Неожиданно для всех вместо своей непокорной жены Астин берет в жены еврейскую девушку Эсфирь, двоюродную сестру Мордехая. В картине реалистично воссоздана жизнь евреев в древней Персии, библейские персонажи ярко представлены известными актерами, особое настроение создает проникновенная музыка Карло Силиотто. В этом фильме показано, что такое власть и насколько она зависит от тех людей, которые окружают тебя. Посмотри на людей, которые влияют на тебя и твой выбор...



Страна: Германия, Италия, США
Продолжительность: 01:27:09
Перевод: Профессиональный (многоголосый, закадровый)

Файл
Качество: DVDRip [исх. DVD5]
Формат файла: AVI
Видео кодек: XviD
Аудио кодек: AC3
Video: 720x544 (1.32:1), 25 fps, XviD build 50 ~2202 kbps avg, 0.22 bit/pixel
Audio: 48 kHz, AC3 Dolby Digital, 2/0 (L,R) ch, ~192 kbps

Время Раздачи 11-00 до 16-00 + 20-00 до 03-00


General
Complete name : C:\Documents and Settings\User\Мои документы\Downloads\The_Bible_Esther_1999.DVDRip.avi
Format : AVI
Format/Info : Audio Video Interleave
File size : 1.46 GiB
Duration : 1h 27mn
Overall bit rate : 2 404 Kbps
Writing application : VirtualDubMod 1.5.10.3 | http://www.virtualdub-fr.org || (build 2550/release)
Writing library : VirtualDubMod build 2550/release

Video
ID : 0
Format : MPEG-4 Visual
Format profile : Advanced Simple@L5
Format settings, BVOP : 1
Format settings, QPel : No
Format settings, GMC : No warppoints
Format settings, Matrix : Default (H.263)
Codec ID : XVID
Codec ID/Hint : XviD
Duration : 1h 27mn
Bit rate : 2 202 Kbps
Width : 720 pixels
Height : 544 pixels
Display aspect ratio : 4:3
Frame rate : 25.000 fps
Color space : YUV
Chroma subsampling : 4:2:0
Bit depth : 8 bits
Scan type : Progressive
Compression mode : Lossy
Bits/(Pixel*Frame) : 0.225
Stream size : 1.34 GiB (92%)
Writing library : XviD 1.2.1 (UTC 2008-12-04)

Audio
ID : 1
Format : AC-3
Format/Info : Audio Coding 3
Mode extension : CM (complete main)
Format settings, Endianness : Big
Codec ID : 2000
Duration : 1h 27mn
Bit rate mode : Constant
Bit rate : 192 Kbps
Channel(s) : 2 channels
Channel positions : Front: L R
Sampling rate : 48.0 KHz
Bit depth : 16 bits
Compression mode : Lossy
Stream size : 120 MiB (8%)
Alignment : Split accross interleaves
Interleave, duration : 40 ms (1.00 video frame)
Interleave, preload duration : 500 ms


Релиз от:


_________________
Проголосуй за трекер Открытый торрент трекер - RUS-MEDIA.ORG

Проголосуй Открытый торрент трекер - RUS-MEDIA.ORG



реклама партнёра


Вернуться к началу
 Профиль Отправить личное сообщение  
 
   Похожие торренты   Автор   Торрент   Размер 
В этой теме нет новых непрочитанных сообщений. Библейские сказания / The Bible. Collection [01-21] [драма, биография, история, библейский, 1993-2002] DVDRip, Mvo

salma3

120 | 119

30.62 ГБ

В этой теме нет новых непрочитанных сообщений. Евангелие от Иоанна / The Visual Bible: The Gospel of John [драма, биография, история, 2003] WEBDLRip, Dub

salma3

15 | 11

1.2 ГБ

В этой теме нет новых непрочитанных сообщений. Простая история / The Straight Story [драма, приключения, биография, 1999] BDRip 720p, Mvo+Avo+Sub

salma3

27 | 5

4.99 ГБ

В этой теме нет новых непрочитанных сообщений. Бальзак / Balzac [драма, мелодрама, биография, 1999] DVDRip, Avo

salma3

160 | 41

2.05 ГБ

В этой теме нет новых непрочитанных сообщений. Сарбджит / Sarbjit [Драма, история, биография, 2016] DVDRip, Dvo

salma3

16 | 9

1.67 ГБ

В этой теме нет новых непрочитанных сообщений. Познакомьтесь с Дороти Дендридж / Introducing Dorothy Dandridge [драма, мелодрама, биография, музыка, 1999] DVDRip, Mvo

salma3

0 | 0

2.18 ГБ

В этой теме нет новых непрочитанных сообщений. Аферист / Rogue Trader [Триллер, драма, криминал, история, 1999] DVDRip-AVC, Dvo+Sub

salma3

113 | 17

1.99 ГБ


Начать новую тему Ответить на тему  [ 1 сообщение ] 




Для Мосгорсуда, Роскомнадзора и рекламодателей:: mosgorsud-torrent[собачка]yandex.ru