Торрент файл
скачать торрент магнет ссылка Добавлен: 08 мар 2014, 14:42
Размер: 1.46 ГБ
Сидеров: 3
Личеров: 4
Статус: (salma3)
Автор

СообщениеДобавлено: 08 мар 2014, 14:42 

В сети
Супермодератор
Аватара пользователя
Дата регистрации:
15 фев 2012, 16:44
Возраст: 27
Спасибо: 5143 / 2090
Сообщения: 17499
Жуки / Bugs

Год выпуска: 2003
Жанр: ужасы, фантастика, триллер
Режиссер: Джозеф Конти /Joseph Conti

В ролях: Антонио Сабато мл., Энджи Эверхарт, Р.Х. Томсон, Карл Прюнер, Дуан Мюррэй, Романо Орзари, Стефани Мур, Уэсли Пэрис, Ксюан Фрайзер, Линн Гриффин, Тим Пост, Элиас Зэроу

Описание:
Серия необычных убийств потрясает город. Трупы изуродованы настолько, что никто не может понять, что же с ними произошло… Это сделали огромные насекомые, просидевшие 65 миллионов лет под землей. Они мутировали и вырвались наружу! Отряд специального назначения отправляется в катакомбы, чтобы уничтожить гнездо этих ужасных тварей. Им предстоит нелегкая задача. Жуки рассекают своих жертв острыми, как серп, конечностями, а их туловище защищено прочнейшим панцирем…



Страна: Канада, США
Продолжительность: 01:25:32
Перевод: Профессиональный [многоголосый закадровый] [Селена Интернешнл]

Файл
Качество: DVDRip
Формат файла: AVI
Видео кодек: XviD
Аудио кодек: AC3
Видео: 704x400 (1.76:1), 23.976 fps, XviD, 2048 kbps, 0.30 bit/pixel
Аудио 1: Русский: 48 kHz, AC3 Dolby Digital, 2/0 (L,R) ch, ~192 kbps [многоголосый, закадровый]
Аудио 2: Английский: 48 kHz, AC3 Dolby Digital, 2/0 (L,R) ch, ~192 kbps [Оригинал]


General
Complete name : E:\Фильмы\Жуки.2003.DVDRip.MVO+ENG.[tfile.ru].avi
Format : AVI
Format/Info : Audio Video Interleave
File size : 1.46 GiB
Duration : 1h 25mn
Overall bit rate : 2 447 Kbps
Writing application : VirtualDubModRus 1.5.10.2 (build 2542/release)
Writing library : VirtualDubMod build 2542/release

Video
ID : 0
Format : MPEG-4 Visual
Format profile : Advanced Simple@L5
Format settings, BVOP : 1
Format settings, QPel : No
Format settings, GMC : No warppoints
Format settings, Matrix : Custom
Codec ID : XVID
Codec ID/Hint : XviD
Duration : 1h 25mn
Bit rate : 2 049 Kbps
Width : 704 pixels
Height : 400 pixels
Display aspect ratio : 16:9
Frame rate : 23.976 fps
Color space : YUV
Chroma subsampling : 4:2:0
Bit depth : 8 bits
Scan type : Progressive
Compression mode : Lossy
Bits/(Pixel*Frame) : 0.303
Stream size : 1.22 GiB (84%)
Writing library : XviD 63

Audio #1
ID : 1
Format : AC-3
Format/Info : Audio Coding 3
Mode extension : CM (complete main)
Codec ID : 2000
Duration : 1h 25mn
Bit rate mode : Constant
Bit rate : 192 Kbps
Channel(s) : 2 channels
Channel positions : Front: L R
Sampling rate : 48.0 KHz
Bit depth : 16 bits
Compression mode : Lossy
Stream size : 117 MiB (8%)
Alignment : Split accross interleaves
Interleave, duration : 42 ms (1.00 video frame)
Interleave, preload duration : 500 ms

Audio #2
ID : 2
Format : AC-3
Format/Info : Audio Coding 3
Mode extension : CM (complete main)
Codec ID : 2000
Duration : 1h 25mn
Bit rate mode : Constant
Bit rate : 192 Kbps
Channel(s) : 2 channels
Channel positions : Front: L R
Sampling rate : 48.0 KHz
Bit depth : 16 bits
Compression mode : Lossy
Stream size : 117 MiB (8%)
Alignment : Split accross interleaves
Interleave, duration : 42 ms (1.00 video frame)
Interleave, preload duration : 500 ms



_________________



реклама партнёра


Вернуться к началу
 Профиль Отправить личное сообщение  
 
   Похожие торренты   Автор   Торрент   Размер 
В этой теме нет новых непрочитанных сообщений. Жуки / Shi ren chong [ужасы, фантастика, 2014] WEB-DLRip, Dvo

salma3

150 | 6

1.36 ГБ

В этой теме нет новых непрочитанных сообщений. Хозяева подземелий / Rats [ужасы, фантастика, триллер, 2003] DVDRip, Mvo [Лицензия] [UNRATED]

salma3

86 | 6

1.45 ГБ

В этой теме нет новых непрочитанных сообщений. Ловец снов / Dreamcatcher [ужасы, фантастика, триллер, драма, 2003] BDRip, Dub

salma3

85 | 10

1.46 ГБ

В этой теме нет новых непрочитанных сообщений. Ловец снов / Dreamcatcher [Ужасы, фантастика, триллер, драма, 2003] WEB-DL 720p, Dub

salma3

110 | 27

8.01 ГБ

В этой теме нет новых непрочитанных сообщений. Глубокая заморозка / Замороженный ужас / Deep Freeze [ужасы, фантастика, боевик, 2003] DVDRip, Mvo

salma3

8 | 3

1.46 ГБ

В этой теме нет новых непрочитанных сообщений. Попутчик 2 / The Hitcher II: I've Been Waiting [ужасы, триллер, 2003] DVDRip-AVC, Mvo

salma3

55 | 7

2.8 ГБ

В этой теме нет новых непрочитанных сообщений. Сад Любви / Garden of Love [ужасы, триллер, 2003] DVDRip, Avo

salma3

37 | 7

1.46 ГБ


Начать новую тему Ответить на тему  [ 1 сообщение ] 




Для Мосгорсуда, Роскомнадзора и рекламодателей:: mosgorsud-torrent[собачка]yandex.ru