Торрент файл
скачать торрент магнет ссылка Добавлен: 07 мар 2014, 20:48
Размер: 1.37 ГБ
Сидеров: 4
Личеров: 2
Статус: (salma3)
Автор

СообщениеДобавлено: 07 мар 2014, 20:49 

Не в сети
Супермодератор
Аватара пользователя
Дата регистрации:
15 фев 2012, 16:44
Возраст: 27
Спасибо: 5140 / 2090
Сообщения: 17470
Голый свидетель / Bare witness

Год выпуска: 2002
Жанр: Триллер, Детектив
Режиссер: Келли Котэн / Kelley Cauthen

В ролях: Энджи Эверхарт, Дэниэл Болдуин, Ивэн МакКензи, Марк Сивертсен, Лорен Реина, Эд Бернард, Кэтлин Кинмонт,

Описание:
Эта улика может стоить жизни. Джули Спенсер была вполне удовлетворена своей профессией порноактрисы и девушки по вызову. Но когда ее нашли на улице жестоко убитой, она уже не казалась такой довольной. Поначалу подозрение в совершении преступления падает на подругу покойной Карли. Однако дела вскоре оборачиваются так, что Карли может и сама стать очередной жертвой. Единственная ее защита . детектив Киллиан, выясняющий, что причина кровавой интриги . таинственная видеокассета, заснятая Джулии и уличающая сильных мира сего. Но где эта запись? И при чем тут обольстительная Карли, к которой герой проникается интересом, далеким от профессионального?..

Семпл

Страна: США
Продолжительность: 01:24:57
Перевод: Профессиональный (многоголосый, закадровый)

Файл
Качество: DVDRip [исх. DVD5]
Формат файла: AVI
Видео кодек: XviD
Аудио кодек: AC3
Video: 720x544 (1.32:1), 25 fps, XviD build 50 ~2112 kbps avg, 0.22 bit/pixel
Audio: 48 kHz, AC3 Dolby Digital, 2/0 (L,R) ch, ~192 kbps

Время Раздачи 11-00 до 16-00 + 20-00 до 03-00


Downloads\Bare_witness_2002.DVDRip.avi
Format : AVI
Format/Info : Audio Video Interleave
File size : 1.37 GiB
Duration : 1h 24mn
Overall bit rate : 2 314 Kbps
Writing application : VirtualDubMod 1.5.10.3 | http://www.virtualdub-fr.org || (build 2550/release)
Writing library : VirtualDubMod build 2550/release

Video
ID : 0
Format : MPEG-4 Visual
Format profile : Advanced Simple@L5
Format settings, BVOP : 3
Format settings, QPel : No
Format settings, GMC : No warppoints
Format settings, Matrix : Default (H.263)
Codec ID : XVID
Codec ID/Hint : XviD
Duration : 1h 24mn
Bit rate : 2 113 Kbps
Width : 720 pixels
Height : 544 pixels
Display aspect ratio : 4:3
Frame rate : 25.000 fps
Color space : YUV
Chroma subsampling : 4:2:0
Bit depth : 8 bits
Scan type : Progressive
Compression mode : Lossy
Bits/(Pixel*Frame) : 0.216
Stream size : 1.25 GiB (91%)
Writing library : XviD 1.2.1 (UTC 2008-12-04)

Audio
ID : 1
Format : AC-3
Format/Info : Audio Coding 3
Mode extension : CM (complete main)
Format settings, Endianness : Big
Codec ID : 2000
Duration : 1h 24mn
Bit rate mode : Constant
Bit rate : 192 Kbps
Channel(s) : 2 channels
Channel positions : Front: L R
Sampling rate : 48.0 KHz
Bit depth : 16 bits
Compression mode : Lossy
Stream size : 117 MiB (8%)
Alignment : Split accross interleaves
Interleave, duration : 40 ms (1.00 video frame)
Interleave, preload duration : 500 ms


Релиз от:


_________________



реклама партнёра


Вернуться к началу
 Профиль Отправить личное сообщение  
 
   Похожие торренты   Автор   Торрент   Размер 
В этой теме нет новых непрочитанных сообщений. Немой свидетель / Безмолвный свидетель / Silent Witness (Фей Син / Fei Xing) [2013г., детектив, драма, WEB-DLRip] MVO

Alfredovich

2 | 2

2.06 ГБ

В этой теме нет новых непрочитанных сообщений. Свидетель / Witness [триллер, драма, мелодрама, криминал, 1985] HDRip, Avo

salma3

30 | 2

1.38 ГБ

В этой теме нет новых непрочитанных сообщений. Свидетель / Witness [триллер, драма, мелодрама, 1985] BDRip 1080p, 2Mvo+Avo

salma3

14 | 2

8.15 ГБ

В этой теме нет новых непрочитанных сообщений. Свидетель / The Witness / Wo shi zheng ren (Сан-Хун Ан / Sang-hoon Ahn) [2015г., Китай, криминал, драма, WEB-DLRip-AVC] DVO

Alfredovich

14 | 4

1.47 ГБ

В этой теме нет новых непрочитанных сообщений. Свидетель / Eye of the Beholder [триллер, драма, детектив, 1999] WEB-DL 720p, Dvo+Avo

salma3

53 | 51

3.98 ГБ

В этой теме нет новых непрочитанных сообщений. Секретные файлы / The Witness Files [Боевик, триллер, 1999] DVDRip, Mvo

salma3

35 | 2

1.25 ГБ

В этой теме нет новых непрочитанных сообщений. Незримые свидетели / Shadow Witness [Детектив, 2012] SATRip, Dvo

salma3

337 | 27

1.2 ГБ


Начать новую тему Ответить на тему  [ 1 сообщение ] 




Для Мосгорсуда, Роскомнадзора и рекламодателей:: mosgorsud-torrent[собачка]yandex.ru