Торрент файл
скачать торрент магнет ссылка Добавлен: 06 мар 2014, 23:43
Размер: 1.2 ГБ
Сидеров: 149
Личеров: 16
Статус: (salma3)
Автор

СообщениеДобавлено: 06 мар 2014, 23:43 

Не в сети
Супермодератор
Аватара пользователя
Дата регистрации:
15 фев 2012, 16:44
Возраст: 28
Спасибо: 6578 / 2143
Сообщения: 43992
Отель романтических свиданий / Hôtel Normandy

Год выхода: 2013
Жанр: Мелодрама, комедия
Режиссер: Шарль Немес

В ролях: Эрик Элмоснино, Элена Ногуэрра, Эри Абиттан, Фредерик Бель, Энн Жирар, Аннелиз Эсм, Алис Белаиди, Жан-Мари Ламур, Седрик Бен Абдулла, Филипп Сутан

О фильме:
Элис молода, красива, занимается любимым делом. Если бы она не потеряла мужа несколько лет назад, то можно было бы сказать, что она просто эталон счастливой женщины. Ближайшие подруги полны решимости выдать ее замуж. Именно для этого они отправляют Элис в самый романтичный отель на свете — легендарную «Нормандию» в Довиле. Уж там-то она точно кого-нибудь встретит!



Страна: Франция
Продолжительность: 01:23:50
Перевод: Профессиональный [многоголосый]

Файл
Качество: SATRip
Формат файла: AVI
Видео кодек: XviD
Аудио кодек: AC3
Видео: 1650 Кбит/с, 720x304, 25.000 кадр/с
Звук: Русский (АС3, 6 ch, 384 Кбит/с)

Семпл

Общее
Полное имя : Otel.romanticheskix.svidanij.2013.SATRip.MediaClub.avi
Формат : AVI
Формат/Информация : Audio Video Interleave
Размер файла : 1,20 Гбайт
Продолжительность : 1 ч. 23 м.
Общий поток : 2043 Кбит/сек
Название фильма : MediaClub
Программа кодирования : VirtualDubMod 1.5.10.2 (build 2540/release)
Библиотека кодирования : VirtualDubMod build 2540/release

Видео
Идентификатор : 0
Формат : MPEG-4 Visual
Профиль формата : Advanced Simple@L5
Параметр BVOP формата : 2
Параметр QPel формата : Нет
Параметр GMC формата : Без точки перехода
Параметр матрицы формата : Default (MPEG)
Идентификатор кодека : XVID
Идентификатор кодека/Подсказка : XviD
Продолжительность : 1 ч. 23 м.
Битрейт : 1650 Кбит/сек
Ширина : 720 пикселей
Высота : 304 пикселя
Соотношение сторон : 2,35:1
Частота кадров : 25,000 кадров/сек
Цветовое пространство : YUV
Субдискретизация насыщенности : 4:2:0
Битовая глубина : 8 бит
Тип развёртки : Прогрессивная
Метод сжатия : С потерями
Бит/(Пиксели*Кадры) : 0.301
Размер потока : 989 Мбайт (81%)
Библиотека кодирования : XviD 65

Аудио
Идентификатор : 1
Формат : AC-3
Формат/Информация : Audio Coding 3
Расширение режима : CM (complete main)
Параметр Endianness формата : Big
Идентификатор кодека : 2000
Продолжительность : 1 ч. 23 м.
Вид битрейта : Постоянный
Битрейт : 384 Кбит/сек
Каналы : 6 каналов
Расположение каналов : Front: L C R, Side: L R, LFE
Частота : 48,0 КГц
Битовая глубина : 16 бит
Метод сжатия : С потерями
Размер потока : 230 Мбайт (19%)
Выравнивание : Разделение по промежуткам
Продолжительность промежутка : 40 мс. (1,00 видеокадр)
Время предзагрузки промежутка : 500 мс.


Релиз от:


_________________
Проголосуй за трекер Открытый торрент трекер - RUS-MEDIA.ORG

Проголосуй Открытый торрент трекер - RUS-MEDIA.ORG



реклама партнёра


Вернуться к началу
 Профиль Отправить личное сообщение  
 
   Похожие торренты   Автор   Торрент   Размер 
В этой теме нет новых непрочитанных сообщений. Отель Нью-Хэмпшир / The Hotel New Hampshire [драма, мелодрама, комедия, 1984] BDRip 720p, Mvo

salma3

0 | 0

9.97 ГБ

В этой теме нет новых непрочитанных сообщений. Отель для собак / Hotel for Dogs [Комедия, семейный, 2009] BDRip 720p, Dub+Dvo+Sub

salma3

23 | 4

7.35 ГБ

В этой теме нет новых непрочитанных сообщений. Отель «Мэриголд». Заселение продолжается / The Second Best Exotic Marigold Hotel (Джон Мэдден) [Драма, Комедия, 2015] HDRip, Dub [iTunes]

Dracon

49 | 2

2.05 ГБ

В этой теме нет новых непрочитанных сообщений. Отель «Мэриголд». Заселение продолжается / The Second Best Exotic Marigold Hotel (Джон Мэдден) [Драма, Комедия, 2015] BDRip-AVC, Dub+Sub [лицензия]

Dracon

35 | 3

4.11 ГБ

В этой теме нет новых непрочитанных сообщений. Отель «Мэриголд». Заселение продолжается / The Second Best Exotic Marigold Hotel (Джон Мэдден) [Драма, Комедия, 2015] BDRip, Dub [Лицензия]

Dracon

1 | 0

2.18 ГБ

В этой теме нет новых непрочитанных сообщений. Отель «Мэриголд». Заселение продолжается / The Second Best Exotic Marigold Hotel (Джон Мэдден) [Драма, Комедия, 2015] BDRip, Dub [Лицензия]

Dracon

2 | 0

1.47 ГБ

В этой теме нет новых непрочитанных сообщений. Отель «Мэриголд». Заселение продолжается / The Second Best Exotic Marigold Hotel (Джон Мэдден) [Драма, Комедия, 2015] HDRip, Dub [iTunes]

Dracon

61 | 2

1.45 ГБ


Начать новую тему Ответить на тему  [ 1 сообщение ] 




Для Мосгорсуда, Роскомнадзора и рекламодателей:: mosgorsud-torrent[собачка]yandex.ru