Торрент файл
скачать торрент магнет ссылка Добавлен: 06 мар 2014, 15:02
Размер: 1.46 ГБ
Сидеров: 1
Личеров: 2
Статус: (salma3)
Автор

СообщениеДобавлено: 06 мар 2014, 15:02 

Не в сети
Супермодератор
Аватара пользователя
Дата регистрации:
15 фев 2012, 16:44
Возраст: 27
Спасибо: 5143 / 2090
Сообщения: 17495
Навесной огонь / Затяжной выстрел / Hangfire

Год выпуска: 1991
Жанр: Боевик, триллер
Режиссер: Питер Марис / Peter Maris

В ролях: Брэд Дэвис, Ким Дилейни, Кен Фори, Ли де Бру, Ян-Майкл Винсент, Джордж Кеннеди, Яфет Котто

Описание: Однажды утром в штате Нью-Мексико на шоссе случилась авария: легковая машина на полном ходу врезалась в автоцистерну с ядовитым газом. Ветер понес облако с токсичными веществами в сторону тюрьмы штата. Пришлось начать срочную эвакуацию заключенных. В суете один из самых жестоких рецидивистов Билли угнал автобус с зэками — и в результате отряд головорезов, готовых на все, забаррикадировался в маленьком городке Сонора, взяв в заложники многих жителей. Два крутых ветерана вьетнамской войны вынуждены вспомнить личный армейский опыт, чтобы остановить банду преступников, терроризирующих жителей маленького городка.

Семпл

Страна: США
Продолжительность: 01:29:10
Перевод: Профессиональный (двухголосый закадровый)

Файл
Качество: DVDRip
Формат файла: AVI
Видео кодек: XviD
Аудио кодек: AC3
Видео: 720x400 (1.80:1), 23.976 fps, XviD build 50 ~2147 kbps avg, 0.31 bit/pixel
Audio: 48 kHz, AC3 Dolby Digital, 2/0 (L,R) ch, ~192 kbps

Downloads\Hangfire_1991.DVDRip.avi
Format : AVI
Format/Info : Audio Video Interleave
File size : 1.46 GiB
Duration : 1h 29mn
Overall bit rate : 2 349 Kbps
Writing application : VirtualDubMod 1.5.10.3 | http://www.virtualdub-fr.org || (build 2550/release)
Writing library : VirtualDubMod build 2550/release

Video
ID : 0
Format : MPEG-4 Visual
Format profile : Advanced Simple@L5
Format settings, BVOP : 3
Format settings, QPel : No
Format settings, GMC : No warppoints
Format settings, Matrix : Default (H.263)
Codec ID : XVID
Codec ID/Hint : XviD
Duration : 1h 29mn
Bit rate : 2 148 Kbps
Width : 720 pixels
Height : 400 pixels
Display aspect ratio : 16:9
Frame rate : 23.976 fps
Color space : YUV
Chroma subsampling : 4:2:0
Bit depth : 8 bits
Scan type : Progressive
Compression mode : Lossy
Bits/(Pixel*Frame) : 0.311
Stream size : 1.34 GiB (91%)
Writing library : XviD 1.2.1 (UTC 2008-12-04)

Audio
ID : 1
Format : AC-3
Format/Info : Audio Coding 3
Mode extension : CM (complete main)
Format settings, Endianness : Big
Codec ID : 2000
Duration : 1h 29mn
Bit rate mode : Constant
Bit rate : 192 Kbps
Channel(s) : 2 channels
Channel positions : Front: L R
Sampling rate : 48.0 KHz
Bit depth : 16 bits
Compression mode : Lossy
Stream size : 123 MiB (8%)
Alignment : Split accross interleaves
Interleave, duration : 42 ms (1.00 video frame)
Interleave, preload duration : 500 ms

Релиз от:


_________________



реклама партнёра


Вернуться к началу
 Профиль Отправить личное сообщение  
 
   Похожие торренты   Автор   Торрент   Размер 
В этой теме нет новых непрочитанных сообщений. Затяжной прыжок / Cutaway [боевик, 2000] DVDRip, Avo

salma3

44 | 4

1.46 ГБ

В этой теме нет новых непрочитанных сообщений. Перекрестный огонь / Bad Country [триллер, драма, детектив, боевик, криминал, 2014] DVDRip, Mvo [Лицензия]

Dracon

1457 | 57

1.46 ГБ

В этой теме нет новых непрочитанных сообщений. Выстрел / Dishkiyaoon [боевик, триллер, 2014] HDRip, Mvo+Sub

salma3

15 | 7

2.16 ГБ

В этой теме нет новых непрочитанных сообщений. Один выстрел / One Shot [боевик, 2014] DVDRip, Avo

salma3

2182 | 82

1.36 ГБ

В этой теме нет новых непрочитанных сообщений. Опережая выстрел [1-8 из 8] [Боевик, криминал, детектив,2011] DVDRip

iopuk60

0 | 10

4.34 ГБ

В этой теме нет новых непрочитанных сообщений. Выстрел / Dishoom [боевик, комедия, криминал, приключения, 2016] DVDRip, Mvo

salma3

264 | 74

2.06 ГБ

В этой теме нет новых непрочитанных сообщений. Выстрел в упор / Body Shot [Триллер, 1994] DVDRip, Avo

salma3

144 | 39

1.45 ГБ


Начать новую тему Ответить на тему  [ 1 сообщение ] 




Для Мосгорсуда, Роскомнадзора и рекламодателей:: mosgorsud-torrent[собачка]yandex.ru